Bad Boys for Life 2020 1080p WEB-DL H264 AC3-EVO | 4.23 GB | G- Drive| Direct Link|

Complete name : Bad Boys for Life.2020.1080p.WEB-DL.H264.AC3-EVO.mkv
Format : Matroska
Format version : Version 4
File size : 4.23 GiB
Duration : 2 h 3 min
Overall bit rate : 4 886 kb/s
Encoded date : UTC 2020-03-30 14:06:01
Writing application : mkvmerge v6.7.0 (‘Back to the Ground’) 64bit built on Jan 8 2014 15:10:52
Writing library : libebml v1.3.0 + libmatroska v1.4.1

Video
ID : 2
Format : AVC
Format/Info : Advanced Video Codec
Format profile : [email protected]
Format settings : CABAC / 5 Ref Frames
Format settings, CABAC : Yes
Format settings, Reference frames : 5 frames
Codec ID : V_MPEG4/ISO/AVC
Duration : 2 h 3 min
Bit rate : 4 405 kb/s
Width : 1 920 pixels
Height : 790 pixels
Display aspect ratio : 2.40:1
Frame rate mode : Constant
Frame rate : 23.976 (24000/1001) FPS
Color space : YUV
Chroma subsampling : 4:2:0
Bit depth : 8 bits
Scan type : Progressive
Bits/(Pixel*Frame) : 0.121
Stream size : 3.81 GiB (90%)
Language : English
Default : Yes
Forced : No
Color range : Limited
Color primaries : BT.709
Transfer characteristics : BT.709
Matrix coefficients : BT.709

Audio
ID : 1
Format : AC-3
Format/Info : Audio Coding 3
Commercial name : Dolby Digital
Codec ID : A_AC3
Duration : 2 h 3 min
Bit rate mode : Constant
Bit rate : 384 kb/s
Channel(s) : 6 channels
Channel layout : L R C LFE Ls Rs
Sampling rate : 48.0 kHz
Frame rate : 31.250 FPS (1536 SPF)
Bit depth : 16 bits
Compression mode : Lossy
Stream size : 340 MiB (8%)
Language : English
Service kind : Complete Main
Default : Yes
Forced : No

Menu
00:00:00.000 : en:1
00:07:33.203 : en:2
00:14:56.646 : en:3
00:23:43.255 : en:4
00:31:05.613 : en:5
00:38:43.069 : en:6
00:45:26.347 : en:7
00:53:27.327 : en:8
01:00:22.033 : en:9
01:07:29.250 : en:10
01:12:55.159 : en:11
01:22:12.340 : en:12
01:29:49.087 : en:13
01:36:47.797 : en:14
01:42:08.576 : en:15
01:53:55.908 : en:16

[​IMG] [​IMG]
[​IMG] [​IMG]
[​IMG] [​IMG]

G- Drive Download 

0 0 vote
Article Rating
Subscribe
Notify of
guest
1 Comment
Oldest
Newest Most Voted
Inline Feedbacks
View all comments
Aditya Patel
Aditya Patel
1 year ago

Can you please upload Die Hard All 5 Movies in 1080p 10bit HEVC x265 With Hindi Language
Please..