Back to The Future: Trilogy 1080p BD Remux 87.9Gb

Image result for back To The Future Trilogy

Complete name :Back.to.the.Future.Part.II.1989.1080p.BluRay.REMUX.VC-1.DTS-HD.MA.5.1-.mkv
Format : Matroska
Format version : Version 4
File size : 26.7 GiB
Duration : 1 h 47 min
Overall bit rate mode : Variable
Overall bit rate : 35.5 Mb/s
Movie name : Back.to.the.Future.Part.II.1989.1080p.BluRay.REMUX.VC-1.DTS-HD.MA.5.1-FGT
Encoded date : UTC 2017-07-18 22:47:32
Writing application : mkvmerge v13.0.0 (‘The Juggler’) 64bit
Writing library : libebml v1.3.4 + libmatroska v1.4.5
Cover : Yes
Attachments : cover_land.jpg / small_cover.jpg / small_cover_land.jpg / cover.jpg

Video
ID : 1
Format : VC-1
Format profile : [email protected]
Codec ID : V_MS/VFW/FOURCC / WVC1
Codec ID/Hint : Microsoft
Duration : 1 h 47 min
Width : 1 920 pixels
Height : 1 080 pixels
Display aspect ratio : 16:9
Frame rate mode : Constant
Frame rate : 23.976 (24000/1001) FPS
Color space : YUV
Chroma subsampling : 4:2:0
Bit depth : 8 bits
Scan type : Progressive
Compression mode : Lossy
Title : Back.to.the.Future.Part.II.1989.1080p.BluRay.REMUX.VC-1.DTS-HD.MA.5.1-FGT
Language : English
Default : No
Forced : No

Audio #1
ID : 2
Format : DTS XLL
Format/Info : Digital Theater Systems
Commercial name : DTS-HD Master Audio
Codec ID : A_DTS
Duration : 1 h 47 min
Bit rate mode : Variable
Channel(s) : 6 channels
Channel layout : C L R Ls Rs LFE
Sampling rate : 48.0 kHz
Frame rate : 93.750 FPS (512 SPF)
Bit depth : 24 bits
Compression mode : Lossless
Title : Back.to.the.Future.Part.II.1989.1080p.BluRay.REMUX.VC-1.DTS-HD.MA.5.1-FGT
Language : English
Default : Yes
Forced : No

Audio #2
ID : 3
Format : DTS
Format/Info : Digital Theater Systems
Codec ID : A_DTS
Duration : 1 h 47 min
Bit rate mode : Constant
Bit rate : 1 509 kb/s
Channel(s) : 6 channels
Channel layout : C L R Ls Rs LFE
Sampling rate : 48.0 kHz
Frame rate : 93.750 FPS (512 SPF)
Bit depth : 24 bits
Compression mode : Lossy
Stream size : 1.14 GiB (4%)
Title : Back.to.the.Future.Part.II.1989.1080p.BluRay.REMUX.VC-1.DTS-HD.MA.5.1-FGT
Language : English
Default : No
Forced : No

Audio #3
ID : 4
Format : DTS
Format/Info : Digital Theater Systems
Codec ID : A_DTS
Duration : 1 h 47 min
Bit rate mode : Constant
Bit rate : 768 kb/s
Channel(s) : 6 channels
Channel layout : C L R Ls Rs LFE
Sampling rate : 48.0 kHz
Frame rate : 93.750 FPS (512 SPF)
Bit depth : 24 bits
Compression mode : Lossy
Stream size : 593 MiB (2%)
Title : Back.to.the.Future.Part.II.1989.1080p.BluRay.REMUX.VC-1.DTS-HD.MA.5.1-FGT
Language : Japanese
Default : No
Forced : No

Audio #4
ID : 5
Format : AC-3
Format/Info : Audio Coding 3
Commercial name : Dolby Digital
Codec ID : A_AC3
Duration : 1 h 47 min
Bit rate mode : Constant
Bit rate : 448 kb/s
Channel(s) : 2 channels
Channel layout : L R
Sampling rate : 48.0 kHz
Frame rate : 31.250 FPS (1536 SPF)
Compression mode : Lossy
Stream size : 346 MiB (1%)
Title : Back.to.the.Future.Part.II.1989.1080p.BluRay.REMUX.VC-1.DTS-HD.MA.5.1-FGT
Language : Japanese
Service kind : Complete Main
Default : No
Forced : No

Audio #5
ID : 6
Format : DTS
Format/Info : Digital Theater Systems
Codec ID : A_DTS
Duration : 1 h 47 min
Bit rate mode : Constant
Bit rate : 768 kb/s
Channel(s) : 6 channels
Channel layout : C L R Ls Rs LFE
Sampling rate : 48.0 kHz
Frame rate : 93.750 FPS (512 SPF)
Bit depth : 24 bits
Compression mode : Lossy
Stream size : 593 MiB (2%)
Title : Back.to.the.Future.Part.II.1989.1080p.BluRay.REMUX.VC-1.DTS-HD.MA.5.1-FGT
Language : German
Default : No
Forced : No

Audio #6
ID : 7
Format : AC-3
Format/Info : Audio Coding 3
Commercial name : Dolby Digital
Codec ID : A_AC3
Duration : 1 h 47 min
Bit rate mode : Constant
Bit rate : 448 kb/s
Channel(s) : 6 channels
Channel layout : L R C LFE Ls Rs
Sampling rate : 48.0 kHz
Frame rate : 31.250 FPS (1536 SPF)
Compression mode : Lossy
Stream size : 346 MiB (1%)
Title : Back.to.the.Future.Part.II.1989.1080p.BluRay.REMUX.VC-1.DTS-HD.MA.5.1-FGT
Language : Turkish
Service kind : Complete Main
Default : No
Forced : No

Audio #7
ID : 8
Format : AC-3
Format/Info : Audio Coding 3
Commercial name : Dolby Digital
Codec ID : A_AC3
Duration : 1 h 47 min
Bit rate mode : Constant
Bit rate : 192 kb/s
Channel(s) : 2 channels
Channel layout : L R
Sampling rate : 48.0 kHz
Frame rate : 31.250 FPS (1536 SPF)
Compression mode : Lossy
Stream size : 148 MiB (1%)
Title : Back.to.the.Future.Part.II.1989.1080p.BluRay.REMUX.VC-1.DTS-HD.MA.5.1-FGT
Language : English
Service kind : Complete Main
Default : No
Forced : No

SOURCE : Blu-ray Disc CEE (Thanks!)
FORMAT : MKV (Matroska)
SIZE : 26.4 GiB
DURATION : 1:58:17 (hⓂs)
CHAPTERS : Named
IMDB : http://www.imdb.com/title/tt0099088/

VIDEO
CODEC : AVC
TYPE : 1080p (Progressive)
FRAME RATE : 23.976 fps
DISPLAY ASPECT RATIO : 16:9
FORMAT PROFILE LEVEL : [email protected]
BITRATE : 26.99 Mbps
WIDTH x HEIGHT : 1920 x 1080 pixels

AUDIO 1
CODEC : DTS-HD Master Audio
LANGUAGE : English
CHANNEL(S) : 5.1
BITRATE : 4235 kbps
SAMPLING RATE : 48 KHz
BIT DEPTH : 24 bits
OTHER INFO : DTS Core: 5.1 / 48 kHz / 1509 kbps / 24-bit

AUDIO 2
CODEC : AC-3
LANGUAGE : English
CHANNEL(S) : 2.0
BITRATE : 192 kbps
SAMPLING RATE : 48 KHz
BIT DEPTH : 16 bits
OTHER INFO : Commentary with Producers Bob Gale and Neil Canton

AUDIO 3
CODEC : AC-3
LANGUAGE : English
CHANNEL(S) : 2.0
BITRATE : 192 kbps
SAMPLING RATE : 48 KHz
BIT DEPTH : 16 bits
OTHER INFO : Q&A Commentary with Director Robert Zemeckis and Producer Bob Gale

SOURCE : Custom Blu-ray Disc (Special Edition)
FORMAT : MKV (Matroska)
SIZE : 34.8 GiB
DURATION : 1:56:03 (hⓂs)
CHAPTERS : Named
IMDB : http://www.imdb.com/title/tt0088763/

VIDEO
CODEC : AVC
TYPE : 1080p (Progressive)
FRAME RATE : 23.976 fps
DISPLAY ASPECT RATIO : 16:9
FORMAT PROFILE LEVEL : [email protected]
BITRATE : 38.3 Mbps
WIDTH x HEIGHT : 1920 x 1080 pixels

AUDIO 1
CODEC : DTS-HD Master Audio
LANGUAGE : English
CHANNEL(S) : 5.1
BITRATE : 4251 kbps
SAMPLING RATE : 48 KHz
BIT DEPTH : 24 bits
OTHER INFO : DTS Core: 5.1 / 48 kHz / 1509 kbps / 24-bit

AUDIO 2
CODEC : AC-3
LANGUAGE : English
CHANNEL(S) : 2.0
BITRATE : 192 kbps
SAMPLING RATE : 48 KHz
BIT DEPTH : 16 bits
OTHER INFO : Commentary with Producers Bob Gale and Neil Canton

AUDIO 3
CODEC : AC-3
LANGUAGE : English
CHANNEL(S) : 2.0
BITRATE : 192 kbps
SAMPLING RATE : 48 KHz
BIT DEPTH : 16 bits
OTHER INFO : Q&A Commentary with Director Robert Zemeckis and Producer Bob Gale

SUBTITLES
English

892e4b84c1d4e43d2e20ba7ed6aa9a20.gifvlcsnap-2020-03-11-04h52m47s795vlcsnap-2020-03-11-04h52m52s232vlcsnap-2020-03-11-04h52m56s077vlcsnap-2020-03-11-04h52m59s825vlcsnap-2020-03-11-04h53m05s782.png8hzfwdjn oCx5urtqj oVzj9ykzx o9i924qth o0klvvqht o

1080p [7-up.net+Download] ( 87.9 Gb)

Back To The Future 1985 Bd Remux- http://bit.ly/2wLJxcP

Back To The Future 1989 Bd Remux- http://bit.ly/3cSfcK7

Back To The Future 1990 BD Remux- http://bit.ly/3cS4EdU

0 0 vote
Article Rating
Subscribe
Notify of
guest
0 Comments
Inline Feedbacks
View all comments