Baazigar (1993) (MUSIC VIDEOS ALBUM) 1080p WebHD AVC DD 5.1 By-DusIcTv

Baazigar (1993) (MUSIC VIDEOS ALBUM) 1080p WebHD AVC DD 5.1 By-DusIcTv

xxxxxxxxxxxxxxxxxxxxxxxxxxxxxxxxxxxxxxxxxxxxxxxxxxxxxxxxxxxxxxxxxxxxxxxxxxxxxxxxxxxxxxxxxxxxxxxxxxx
Baazigar (1993) (MUSIC VIDEOS ALBUM) 1080p WebHD AVC DD 5.1 By-DusIcTv
xxxxxxxxxxxxxxxxxxxxxxxxxxxxxxxxxxxxxxxxxxxxxxxxxxxxxxxxxxxxxxxxxxxxxxxxxxxxxxxxxxxxxxxxxxxxxxxxxxx

:details:

Format : Matroska
Format version : Version 4
File size : 2.18 GB
Overall bit rate : 10.5 Mb/s
Encoded date : UTC 2019-11-13 16:27:08
Writing application : mkvmerge v40.0.0 (‘Old Town Road + Pony’) 64-bit
Writing library : libebml v1.3.9 + libmatroska v1.5.2

Video
ID : 1
Format : AVC
Format/Info : Advanced Video Codec
Format profile : [email protected]
Format settings : CABAC / 4 Ref Frames
Format settings, CABAC : Yes
Format settings, Reference frames : 4 frames
Codec ID : V_MPEG4/ISO/AVC
Bit rate mode : Constant
Bit rate : 10 000 kb/s
Width : 1 920 pixels
Height : 816 pixels
Display aspect ratio : 2.35:1
Frame rate mode : Constant
Frame rate : 25.000 FPS
Color space : YUV
Chroma subsampling : 4:2:0
Bit depth : 8 bits
Scan type : Progressive
Bits/(Pixel*Frame) : 0.255
Stream size : 368 MiB (94%)
Title : By-DusIcTv
Default : Yes
Forced : No
Color range : Limited
Color primaries : BT.709
Transfer characteristics : BT.709
Matrix coefficients : BT.709

Audio
ID : 2
Format : AC-3
Format/Info : Audio Coding 3
Commercial name : Dolby Digital
Codec ID : A_AC3
Bit rate mode : Constant
Bit rate : 640 kb/s
Channel(s) : 6 channels
Channel layout : L R C LFE Ls Rs
Sampling rate : 48.0 kHz
Frame rate : 31.250 FPS (1536 SPF)
Compression mode : Lossy
Delay relative to video : 16 ms
Stream size : 24.0 MiB (6%)
Title : By-DusIcTv
Service kind : Complete Main
Default : Yes
Forced : No

Text
ID : 3
Format : UTF-8
Codec ID : S_TEXT/UTF8
Codec ID/Info : UTF-8 Plain Text
Bit rate : 28 b/s
Count of elements : 21
Stream size : 926 Bytes (0%)
Title : By-DusIcTv
Language : English
Default : No
Forced : No

:screenshots:








Credit Goes To : Aminul Islam Ameen & 24x HD @ BWT / DusIcTv.

:download2:
01-Kitaben Bahut Si [By-DusIcTv].mkv   433.94 MB

https://thefileslocker.com/krmmxvw3sjg0.html

02-Baazigar O Baazigar [By-DusIcTv].mkv   555.66 MB

https://thefileslocker.com/bi0yqak028bj.html

03-Ae Mere Humsafar [By-DusIcTv].mkv   392.38 MB

https://thefileslocker.com/btvok17i0sxl.html

04-Chhupana Bhi Nahin Aata [By-DusIcTv].mkv   300.63 MB

https://thefileslocker.com/uvlnpcwzpbsw.html

05-Ye Kaali Kaali Aakhen [By-DusIcTv].mkv   501.34 MB

https://thefileslocker.com/7clb8qs4tdxe.html

06-Baazigar O Baazigar End Roll [By-DusIcTv].mkv   56.05 MB

https://thefileslocker.com/lp3v6t5jowez.html

https://thefileslocker.com/otf1imvj4ywb.html
https://desiupload.to/f/2e79bt-olkowi8wmsqv9
https://uptobox.com/qzseyoimsc7x

0 0 vote
Article Rating
Subscribe
Notify of
guest
1 Comment
Oldest
Newest Most Voted
Inline Feedbacks
View all comments
Emilio
1 year ago

Can you upload Baazigar (1993) 1080p WebHD AVC DD 5.1, the whole film