Baar Baar Dekho (2016) (MUSIC VIDEO ALBUM) Untouched -DD 5.1 AC-3 ESuBS By [24x]

Media info
General
ID : 1 (0x1)
Format : BDAV
Format : M2ts
Format/Info : Blu-ray Video
File size : 3.30 GB
Overall bit rate mode : Variable
Overall bit rate : 19.3 Mb/s
Maximum Overall bit rate : 35.5 Mb/s

Video
ID : 4113 (0x1011)
Menu ID : 1 (0x1)
Format : MPEG Video
Format version : Version 2
Format profile : [email protected]
Format settings : BVOP
Format settings, BVOP : Yes
Format settings, Matrix : Default
Format settings, GOP : M=3, N=12
Codec ID : 2
Bit rate mode : Constant
Bit rate : 17.5 Mb/s
Width : 1 920 pixels
Height : 1 080 pixels
Display aspect ratio : 16:9
Frame rate : 24.000 FPS
Color space : YUV
Chroma subsampling : 4:2:0
Bit depth : 8 bits
Scan type : Progressive
Compression mode : Lossy
Bits/(Pixel*Frame) : 0.352
Time code of first frame : 00:03:06:00
Time code source : Group of pictures header
GOP, Open/Closed : Closed
Stream size : 510 MiB (91%)

Audio #1
ID : 4352 (0x1100)
Menu ID : 1 (0x1)
Format : AC-3
Format/Info : Audio Coding 3
Codec ID : 129
Bit rate mode : Constant
Bit rate : 448 kb/s
Channel(s) : 6 channels
Channel positions : Front: L C R, Side: L R, LFE
Sampling rate : 48.0 kHz
Frame rate : 31.250 FPS (1536 SPF)
Bit depth : 16 bits
Compression mode : Lossy
Delay relative to video : -25 ms
Stream size : 12.9 MiB (2%)
Service kind : Complete Main

Audio #2
ID : 4353 (0x1101)
Menu ID : 1 (0x1)
Format : AC-3
Format/Info : Audio Coding 3
Codec ID : 129
Bit rate mode : Constant
Bit rate : 448 kb/s
Channel(s) : 6 channels
Channel positions : Front: L C R, Side: L R, LFE
Sampling rate : 48.0 kHz
Frame rate : 31.250 FPS (1536 SPF)
Bit depth : 16 bits
Compression mode : Lossy
Delay relative to video : -25 ms
Stream size : 12.9 MiB (2%)
Service kind : Complete Main

Text #1
ID : 4608 (0x1200)
Menu ID : 1 (0x1)
Format : PGS
Codec ID : 144
Delay relative to video : 6 s 84 ms

Text #2
ID : 4609 (0x1201)
Menu ID : 1 (0x1)
Format : PGS
Codec ID : 144
Delay relative to video : 6 s 667 ms

01-Kho Gaye Hum Kahan 1 [24x].m2ts – 558.0 MB

02-Nachde Ne Saare [24x].m2ts – 450.4 MB

03-Sau Aasmaan [24x].m2ts – 498.2 MB

04-Teri Khair Mangdi [24x].m2ts – 369.3 MB

05-Dariya [24x].m2ts – 502.6 MB

06-Kho Gaye Hum Kahan 2 [24x].m2ts – 181.0 MB

07-Kala Chashma [24x].m2ts – 434.2 MB

08-Kho Gaye Hum Kahan End Roll [24x].m2ts – 391.9 MB

0 0 vote
Article Rating
Subscribe
Notify of
guest
0 Comments
Inline Feedbacks
View all comments