Baahubali-The Beginning (2015) BluRay 1080p TrueHD Atmos 7.1 AVC REMUX – FraMeSToR | G-Drive | 39 GB |

Complete name : D:\pankaj1tb\Baahubali_ The Beginning (2015) BluRay 1080p TrueHD Atmos 7.1 AVC REMUX – FraMeSToR.mkv
Format : Matroska
Format version : Version 4
File size : 39.2 GiB
Duration : 2 h 39 min
Overall bit rate mode : Variable
Overall bit rate : 35.2 Mb/s
Movie name : Baahubali: The Beginning (2015)
Encoded date : UTC 2018-02-24 01:49:54
Writing application : mkvmerge v19.0.0 (‘Brave Captain’) 64-bit
Writing library : libebml v1.3.5 + libmatroska v1.4.8

Video
ID : 1
Format : AVC
Format/Info : Advanced Video Codec
Format profile : [email protected]
Format settings : CABAC / 4 Ref Frames
Format settings, CABAC : Yes
Format settings, ReFrames : 4 frames
Codec ID : V_MPEG4/ISO/AVC
Duration : 2 h 39 min
Bit rate mode : Constant
Bit rate : 28.6 Mb/s
Nominal bit rate : 30.0 Mb/s
Width : 1 920 pixels
Height : 1 080 pixels
Display aspect ratio : 16:9
Frame rate mode : Constant
Frame rate : 24.000 FPS
Color space : YUV
Chroma subsampling : 4:2:0
Bit depth : 8 bits
Scan type : Progressive
Bits/(Pixel*Frame) : 0.574
Stream size : 31.8 GiB (81%)
Default : Yes
Forced : No

Audio #1
ID : 2
Format : MLP FBA 16-ch
Format/Info : Meridian Lossless Packing FBA with 16-channel presentation
Commercial name : Dolby TrueHD with Dolby Atmos
Codec ID : A_TRUEHD
Duration : 2 h 39 min
Bit rate mode : Variable
Bit rate : 5 925 kb/s
Maximum bit rate : 9 030 kb/s
Channel(s) : 8 channels
Channel layout : L R C LFE Ls Rs Lb Rb
Sampling rate : 48.0 kHz
Frame rate : 1 200.000 FPS (40 SPF)
Compression mode : Lossless
Stream size : 6.60 GiB (17%)
Title : TrueHD Atmos 7.1
Language : Hindi
Default : Yes
Forced : No
Number of dynamic objects : 11
Bed channel count : 1 channel
Bed channel configuration : LFE

Audio #2
ID : 3
Format : AC-3
Format/Info : Audio Coding 3
Commercial name : Dolby Digital
Codec ID : A_AC3
Duration : 2 h 39 min
Bit rate mode : Constant
Bit rate : 640 kb/s
Channel(s) : 6 channels
Channel layout : L R C LFE Ls Rs
Sampling rate : 48.0 kHz
Frame rate : 31.250 FPS (1536 SPF)
Bit depth : 16 bits
Compression mode : Lossy
Stream size : 730 MiB (2%)
Title : AC3 5.1-EX
Language : Hindi
Service kind : Complete Main
Default : No
Forced : No

Text
ID : 4
Format : PGS
Codec ID : S_HDMV/PGS
Codec ID/Info : Picture based subtitle format used on BDs/HD-DVDs
Duration : 2 h 32 min
Bit rate : 15.3 kb/s
Count of elements : 1871
Stream size : 16.7 MiB (0%)
Title : English
Language : English
Default : No
Forced : No

Menu
00:00:00.000 : en:Beginning Credits
00:04:45.750 : en:The Ultimate Sacrifice
00:10:28.042 : en:Shiva Aspiring To Climb The Waterfall
00:15:24.875 : en:Kaun Hai Woh…
00:18:42.167 : en:The Mask
00:20:40.333 : en:Khoya Hai…
00:26:51.125 : en:A Rebellious Warrior Group
00:33:06.833 : en:Kattappa – The Royal Guard
00:41:03.583 : en:King Bhallaladeva
01:02:02.417 : en:Panchi Boley…
01:05:31.250 : en:Shiva Saves Avanthika’s Life
01:11:45.542 : en:Jal Rahin Hai…
01:21:27.625 : en:Shiva Rescues Devasena
01:37:14.000 : en:Kattappa Narrates The Past
01:44:07.208 : en:Mamta Se Bhari…
01:48:28.083 : en:A New Crisis
01:51:42.208 : en:Manohari
01:57:32.208 : en:The Right Plan Of Attack
02:19:32.667 : en:Whats is Death?
02:29:12.583 : en:Announcement Of The New King

G-Drive Full Movie 39.GB

G- Drive Part 4.5 GB

Baahubali_ The Beginning (2015) BluRay 1080p TrueHD Atmos 7.1 AVC REMUX – FraMeSToR.part01.rar – 4.4 GB

Baahubali_ The Beginning (2015) BluRay 1080p TrueHD Atmos 7.1 AVC REMUX – FraMeSToR.part02.rar – 4.4 GB

Baahubali_ The Beginning (2015) BluRay 1080p TrueHD Atmos 7.1 AVC REMUX – FraMeSToR.part03.rar – 4.4 GB

Baahubali_ The Beginning (2015) BluRay 1080p TrueHD Atmos 7.1 AVC REMUX – FraMeSToR.part04.rar – 4.4 GB

Baahubali_ The Beginning (2015) BluRay 1080p TrueHD Atmos 7.1 AVC REMUX – FraMeSToR.part05.rar – 4.4 GB

Baahubali_ The Beginning (2015) BluRay 1080p TrueHD Atmos 7.1 AVC REMUX – FraMeSToR.part06.rar – 4.4 GB

Baahubali_ The Beginning (2015) BluRay 1080p TrueHD Atmos 7.1 AVC REMUX – FraMeSToR.part07.rar – 4.4 GB

Baahubali_ The Beginning (2015) BluRay 1080p TrueHD Atmos 7.1 AVC REMUX – FraMeSToR.part08.rar – 4.4 GB

Baahubali_ The Beginning (2015) BluRay 1080p TrueHD Atmos 7.1 AVC REMUX – FraMeSToR.part09.rar – 4.1 GB

0 0 vote
Article Rating
Subscribe
Notify of
guest
4 Comments
Oldest
Newest Most Voted
Inline Feedbacks
View all comments
Md Samseka
Md Samseka
1 year ago

I don’t have 39GB storage.kindly give me G-drive link.i have 15GB stroge capacity.

Man
Man
Reply to  SaturnWeb
1 year ago

Bhai Upload Murder 2 na please

ghostrider
ghostrider
9 months ago

please fix the link G-Drive Full Movie 39.GB