Baahubali 2_ The Conclusion (2017) BluRay 1080p TrueHD Atmos 7.1 AVC REMUX – FraMeSToR | G- Drive | 36 GB |

Atmos 7.1 AVC REMUX – FraMeSToR.mkv
Format : Matroska
Format version : Version 4
File size : 36.0 GiB
Duration : 2 h 46 min
Overall bit rate mode : Variable
Overall bit rate : 30.9 Mb/s
Movie name : Bahubali 2: The Conclusion
Encoded date : UTC 2017-07-31 17:23:31
Writing application : mkvmerge v14.0.0 (‘Flow’) 64bit
Writing library : libebml v1.3.4 + libmatroska v1.4.5

Video
ID : 1
Format : AVC
Format/Info : Advanced Video Codec
Format profile : [email protected]
Format settings : CABAC / 4 Ref Frames
Format settings, CABAC : Yes
Format settings, ReFrames : 4 frames
Codec ID : V_MPEG4/ISO/AVC
Duration : 2 h 46 min
Bit rate mode : Constant
Bit rate : 25.0 Mb/s
Width : 1 920 pixels
Height : 1 080 pixels
Display aspect ratio : 16:9
Frame rate mode : Constant
Frame rate : 24.000 FPS
Color space : YUV
Chroma subsampling : 4:2:0
Bit depth : 8 bits
Scan type : Progressive
Bits/(Pixel*Frame) : 0.502
Stream size : 28.4 GiB (79%)
Default : Yes
Forced : No

Audio #1
ID : 2
Format : MLP FBA 16-ch
Format/Info : Meridian Lossless Packing FBA with 16-channel presentation
Commercial name : Dolby TrueHD with Dolby Atmos
Codec ID : A_TRUEHD
Duration : 2 h 46 min
Bit rate mode : Variable
Bit rate : 5 793 kb/s
Maximum bit rate : 8 949 kb/s
Channel(s) : 8 channels
Channel layout : L R C LFE Ls Rs Lb Rb
Sampling rate : 48.0 kHz
Frame rate : 1 200.000 FPS (40 SPF)
Compression mode : Lossless
Stream size : 6.75 GiB (19%)
Title : TrueHD Atmos 7.1
Language : Hindi
Default : Yes
Forced : No
Number of dynamic objects : 15
Bed channel count : 1 channel
Bed channel configuration : LFE

Audio #2
ID : 3
Format : AC-3
Format/Info : Audio Coding 3
Commercial name : Dolby Digital
Codec ID : A_AC3
Duration : 2 h 46 min
Bit rate mode : Constant
Bit rate : 640 kb/s
Channel(s) : 6 channels
Channel layout : L R C LFE Ls Rs
Sampling rate : 48.0 kHz
Frame rate : 31.250 FPS (1536 SPF)
Bit depth : 16 bits
Compression mode : Lossy
Stream size : 764 MiB (2%)
Title : AC3 5.1
Language : Hindi
Service kind : Complete Main
Default : No
Forced : No

Text
ID : 4
Format : PGS
Codec ID : S_HDMV/PGS
Codec ID/Info : Picture based subtitle format used on BDs/HD-DVDs
Duration : 2 h 40 min
Bit rate : 23.5 kb/s
Count of elements : 2503
Stream size : 27.0 MiB (0%)
Title : English
Language : English
Default : Yes
Forced : No

Menu
00:00:00.000 : hi:00:00:00.000
00:02:42.375 : hi:00:02:42.375
00:05:11.458 : hi:00:05:11.458
00:08:24.458 : hi:00:08:24.458
00:16:41.542 : hi:00:16:41.542
00:30:31.792 : hi:00:30:31.792
00:39:21.792 : hi:00:39:21.792
00:42:57.500 : hi:00:42:57.500
00:46:24.542 : hi:00:46:24.542
00:51:02.417 : hi:00:51:02.417
01:07:36.417 : hi:01:07:36.417
01:11:51.042 : hi:01:11:51.042
01:18:27.875 : hi:01:18:27.875
01:27:20.000 : hi:01:27:20.000
01:38:15.333 : hi:01:38:15.333
01:43:27.417 : hi:01:43:27.417
01:51:08.167 : hi:01:51:08.167
02:01:31.000 : hi:02:01:31.000
02:13:27.833 : hi:02:13:27.833
02:39:25.250 : hi:02:39:25.250

G- Drive Download Full Movie 36 GB

G- Drive Parts 4.4 GB

Baahubali 2_ The Conclusion (2017) BluRay 1080p TrueHD Atmos 7.1 AVC REMUX – FraMeSToR.part09.rar – 953.4 MB

Baahubali 2_ The Conclusion (2017) BluRay 1080p TrueHD Atmos 7.1 AVC REMUX – FraMeSToR.part08.rar – 4.4 GB

Baahubali 2_ The Conclusion (2017) BluRay 1080p TrueHD Atmos 7.1 AVC REMUX – FraMeSToR.part07.rar – 4.4 GB

Baahubali 2_ The Conclusion (2017) BluRay 1080p TrueHD Atmos 7.1 AVC REMUX – FraMeSToR.part06.rar – 4.4 GB

Baahubali 2_ The Conclusion (2017) BluRay 1080p TrueHD Atmos 7.1 AVC REMUX – FraMeSToR.part05.rar – 4.4 GB

Baahubali 2_ The Conclusion (2017) BluRay 1080p TrueHD Atmos 7.1 AVC REMUX – FraMeSToR.part04.rar – 4.4 GB

Baahubali 2_ The Conclusion (2017) BluRay 1080p TrueHD Atmos 7.1 AVC REMUX – FraMeSToR.part03.rar – 4.4 GB

Baahubali 2_ The Conclusion (2017) BluRay 1080p TrueHD Atmos 7.1 AVC REMUX – FraMeSToR.part02.rar – 4.4 GB

Baahubali 2_ The Conclusion (2017) BluRay 1080p TrueHD Atmos 7.1 AVC REMUX – FraMeSToR.part01.rar – 4.4 GB

0 0 vote
Article Rating
Subscribe
Notify of
guest
4 Comments
Oldest
Newest Most Voted
Inline Feedbacks
View all comments
Jay
Jay
11 months ago

Links are not working.

srk khan
srk khan
11 months ago

plz reup the links thanx in advance

ghostrider
ghostrider
7 months ago

please fix the link G- Drive Download Full Movie 36 GB