Avengers Endgame (2019) Open Matte 1080p 10bit HEVC English DD 5.1 E-AC3 H265 ESubs _RONIN | G- Drive| 3.6 GB |

Format : Matroska
Format version : Version 4
File size : 3.76 GiB
Duration : 3 h 1 min
Overall bit rate : 2 958 kb/s
Movie name : Avengers Endgame (2019) Open Matte 1080p 10bit HEVC English DD 5.1 E-AC3 H265 ESubs ~RONIN~
Encoded date : UTC 2019-10-23 12:54:37
Writing application : mkvmerge v29.0.0 (‘Like It Or Not’) 32-bit
Writing library : libebml v1.3.6 + libmatroska v1.4.9 / Lavf58.20.100
Attachments : RONIN.png

Video
ID : 2
Format : HEVC
Format/Info : High Efficiency Video Coding
Format profile : Main [email protected]@Main
Codec ID : V_MPEGH/ISO/HEVC
Duration : 3 h 1 min
Bit rate : 2 317 kb/s
Width : 1 920 pixels
Height : 1 080 pixels
Display aspect ratio : 16:9
Frame rate mode : Constant
Frame rate : 23.976 (24000/1001) FPS
Color space : YUV
Chroma subsampling : 4:2:0
Bit depth : 10 bits
Bits/(Pixel*Frame) : 0.047
Stream size : 2.94 GiB (78%)
Title : Avengers Endgame (2019) Open Matte 1080p 10bit HEVC English DD 5.1 E-AC3 H265 ESubs ~RONIN~

Default : Yes
Forced : No
Color range : Limited
Color primaries : BT.709
Transfer characteristics : BT.709
Matrix coefficients : BT.709

Audio
ID : 1
Format : E-AC-3 JOC
Format/Info : Enhanced AC-3 with Joint Object Coding
Commercial name : Dolby Digital Plus with Dolby Atmos
Codec ID : A_EAC3
Duration : 3 h 1 min
Bit rate mode : Constant
Bit rate : 640 kb/s
Channel(s) : 6 channels
Channel layout : L R C LFE Ls Rs
Sampling rate : 48.0 kHz
Frame rate : 31.250 FPS (1536 SPF)
Compression mode : Lossy
Delay relative to video : 900 ms
Stream size : 832 MiB (22%)
Title : E-AC3 DD 5.1 640kbps ~RONIN~
Service kind : Complete Main
Default : Yes
Forced : No
Complexity index : 16
Number of dynamic objects : 15
Bed channel count : 1 channel
Bed channel configuration : LFE

Text
ID : 3
Format : ASS
Codec ID : S_TEXT/ASS
Codec ID/Info : Advanced Sub Station Alpha
Duration : 1 min 34 s
Bit rate : 43 b/s
Count of elements : 13
Compression mode : Lossless
Stream size : 508 Bytes (0%)
Title : RONIN
Language : English
Default : No
Forced : No

Menu
00:00:00.000 : :One Last Surprise
00:08:06.152 : :”To the Garden”
00:20:02.201 : :Five Years Later
00:26:15.574 : :”A Time Heist”
00:36:57.215 : :”Time Travel Do-Over”
00:43:20.598 : :”I Fixed It”
00:48:44.255 : :Assembling the Avengers
00:57:37.120 : :”Get the Stones, Get Them Back”
01:07:13.029 : :Rogue Transmission
01:16:02.892 : :New York, 2012
01:26:25.514 : :Asgard, 2013
01:32:20.535 : :Morag, 2014
01:38:55.930 : :New Jersey, 1970
01:48:12.486 : :Vormir, 2014
01:57:27.040 : :”I Was Made for This”
02:05:00.493 : :Thanos’ Return
02:15:06.765 : :Avengers Assemble
02:25:50.742 : :One of the 14,000,605
02:34:37.935 : :”Part of the Journey Is the End”
02:43:04.108 : :”Clip All the Branches”
02:49:05.469 : :End Credits

e307db03571ecb9ea68ec845e528370f.jpg
c405200eaeba97f491dcb5ad117e655e.jpg
2b1ed6593254f324cea9e7bb47869e6e.jpg
a27e9c1a44b03c79b58b6b2aa3b7de44.jpg
dcf314a5a2ff98a44e977c2d188be7c4.jpg
f30299b4b23649193d826124b493f334.jpg
ba16dc639b501d1c0c2280e7b2fd8ac7.jpg
ef4a57cb8549aa1ba15193229dda2593.jpg
0e1d60d437c000f63b58da258701f7d7.jpg

G- Drive Download 

The File Locker Download

0 0 vote
Article Rating
Subscribe
Notify of
guest
0 Comments
Inline Feedbacks
View all comments