Avengers Endgame (2019) 720p BluRay x264 ESubs Dual Audio [Hindi (Cleaned) + English]

.

Format : Matroska
Format version : Version 4
File size : 1.10 GiB
Duration : 3 h 1 min
Overall bit rate : 866 kb/s
Movie name : Avengers : Endgame (2019) 720p BluRay x264 ESubs Dual Audio [Hindi (Cleaned) + English][DesiShare.org]
Encoded date : UTC 2019-07-31 10:52:12
Writing application : mkvmerge v29.0.0 (‘Like It Or Not’) 32-bit
Writing library : libebml v1.3.6 + libmatroska v1.4.9

Video
ID : 1
Format : AVC
Format/Info : Advanced Video Codec
Format profile : [email protected]
Format settings : CABAC / 4 Ref Frames
Format settings, CABAC : Yes
Format settings, ReFrames : 4 frames
Codec ID : V_MPEG4/ISO/AVC
Duration : 3 h 1 min
Bit rate : 670 kb/s
Width : 1 280 pixels
Height : 544 pixels
Display aspect ratio : 2.40:1
Frame rate mode : Variable
Frame rate : 23.976 FPS
Color space : YUV
Chroma subsampling : 4:2:0
Bit depth : 8 bits
Scan type : Progressive
Bits/(Pixel*Frame) : 0.040
Stream size : 868 MiB (77%)
Title : [DesiShare.org]

Language : English
Default : Yes
Forced : Yes

Audio #1
ID : 2
Format : AC-3
Format/Info : Audio Coding 3
Commercial name : Dolby Digital
Codec ID : A_AC3
Duration : 3 h 1 min
Bit rate mode : Constant
Bit rate : 96.0 kb/s
Channel(s) : 2 channels
Channel layout : L R
Sampling rate : 44.1 kHz
Frame rate : 28.711 FPS (1536 SPF)
Bit depth : 16 bits
Compression mode : Lossy
Stream size : 124 MiB (11%)
Title : [DesiShare.org]
Language : Hindi
Service kind : Complete Main
Default : Yes
Forced : Yes

Audio #2
ID : 3
Format : AAC LC
Format/Info : Advanced Audio Codec Low Complexity
Codec ID : A_AAC-2
Duration : 3 h 1 min
Bit rate : 96.0 kb/s
Channel(s) : 2 channels
Channel layout : L R
Sampling rate : 48.0 kHz
Frame rate : 46.875 FPS (1024 SPF)
Compression mode : Lossy
Stream size : 126 MiB (11%)
Title : [DesiShare.org]
Language : English
Default : No
Forced : No

Text
ID : 4
Format : UTF-8
Codec ID : S_TEXT/UTF8
Codec ID/Info : UTF-8 Plain Text
Duration : 3 h 0 min
Bit rate : 50 b/s
Count of elements : 2625
Stream size : 67.2 KiB (0%)
Title : [DesiShare.org]
Language : English
Default : Yes
Forced : Yes

df3a234b503b927ecd6b9344908cfe4c.jpg
5fb47ec8a107f91172ca9fd80cc5d9ef.jpg
880ecd33022d3c737b4cefad030c3f07.jpg

PLAY ONLINE

The File Locker Download {1. 10 GB}

Quick Download {1. 10 GB} {zip}

{ Direct } Download  Link {1. 10 GB}

{ G-Drive } Download  Link {1. 10 GB}

{ Mega – Drive } Download  Link {1. 10 GB} 

{Media Fire } Download  Link {1. 10 GB}

 

0 0 vote
Article Rating
Subscribe
Notify of
guest
2 Comments
Oldest
Newest Most Voted
Inline Feedbacks
View all comments
fozan
fozan
1 year ago

pls upload housefull 2 songs bd50 in m2ts format pls