Avengers Endgame (2019) 1080p BluRay x264 Dual Audio [Hindi DD5.1 UPMIX – English DTS 5.1] – ESUBS ~ Ranvijay [Team SSX]

Hindi Audio Source :- TMV (Thanks)

General
Format                                   : Matroska
Format version                           : Version 4 / Version 2
File size                                : 12.6 GiB
Duration                                 : 3 h 1 min
Overall bit rate                         : 9 928 kb/s

Video
ID                                       : 1
Format                                   : AVC
Format/Info                              : Advanced Video Codec
Duration                                 : 3 h 1 min
Bit rate                                 : 8 000 kb/s
Width                                    : 1 920 pixels
Height                                   : 804 pixels
Display aspect ratio                     : 2.40:1
Frame rate mode                          : Constant
Frame rate                               : 23.976 (24000/1001) FPS
Color space                              : YUV
Chroma subsampling                       : 4:2:0
Bit depth                                : 8 bits
Scan type                                : Progressive
Bits/(Pixel*Frame)                       : 0.216
Stream size                              : 10.1 GiB (81%)
Title                                    : ~Ranvijay~

Audio #1
ID                                       : 2
Format                                   : AC-3
Format/Info                              : Audio Coding 3
Codec ID                                 : A_AC3
Duration                                 : 3 h 1 min
Bit rate mode                            : Constant
Bit rate                                 : 384 kb/s
Channel(s)                               : 6 channels
Channel positions                        : Front: L C R, Side: L R, LFE
Sampling rate                            : 48.0 kHz
Frame rate                               : 31.250 FPS (1536 SPF)
Bit depth                                : 16 bits
Compression mode                         : Lossy
Stream size                              : 498 MiB (4%)
Title                                    : ~Ranvijay~
Language                                 : Hindi
Service kind                             : Complete Main
Default                                  : Yes
Forced                                   : Yes

Audio #2
ID                                       : 3
Format                                   : DTS
Format/Info                              : Digital Theater Systems
Codec ID                                 : A_DTS
Duration                                 : 3 h 1 min
Bit rate mode                            : Constant
Bit rate                                 : 1 509 kb/s
Channel(s)                               : 6 channels
Channel positions                        : Front: L C R, Side: L R, LFE
Sampling rate                            : 48.0 kHz
Frame rate                               : 93.750 FPS (512 SPF)
Bit depth                                : 24 bits
Compression mode                         : Lossy
Stream size                              : 1.91 GiB (15%)
Title                                    : ~Ranvijay~
Language                                 : English
Default                                  : No
Forced                                   : No

Text #1
ID                                       : 4
Format                                   : PGS
Muxing mode                              : zlib
Codec ID                                 : S_HDMV/PGS
Codec ID/Info                            : Picture based subtitle format used on BDs/HD-DVDs
Duration                                 : 3 h 0 min
Bit rate                                 : 33.9 kb/s
Count of elements                        : 5266
Stream size                              : 43.8 MiB (0%)
Title                                    : ~Ranvijay~
Language                                 : English
Default                                  : Yes
Forced                                   : Yes

Text #2
ID                                       : 5
Format                                   : PGS
Muxing mode                              : zlib
Codec ID                                 : S_HDMV/PGS
Codec ID/Info                            : Picture based subtitle format used on BDs/HD-DVDs
Duration                                 : 3 h 0 min
Bit rate                                 : 70.0 kb/s
Count of elements                        : 6520
Stream size                              : 90.6 MiB (1%)
Title                                    : ~Ranvijay~
Language                                 : English
Default                                  : No
Forced                                   : No

Menu
00:00:00.000                             : en:00:00:00.000
00:08:05.902                             : en:00:08:05.902
00:20:01.700                             : en:00:20:01.700
00:26:15.282                             : en:00:26:15.282
00:36:57.173                             : en:00:36:57.173
00:43:20.598                             : en:00:43:20.598
00:48:44.171                             : en:00:48:44.171
00:57:36.745                             : en:00:57:36.745
01:07:12.612                             : en:01:07:12.612
01:16:02.516                             : en:01:16:02.516
01:26:25.430                             : en:01:26:25.430
01:32:20.118                             : en:01:32:20.118
01:38:55.805                             : en:01:38:55.805
01:48:12.361                             : en:01:48:12.361
01:57:26.915                             : en:01:57:26.915
02:05:00.243                             : en:02:05:00.243
02:15:06.432                             : en:02:15:06.432
02:25:50.450                             : en:02:25:50.450
02:34:37.935                             : en:02:34:37.935
02:43:03.899                             : en:02:43:03.899
02:49:05.344                             : en:02:49:05.344

The File Locker Download {  12 Gb }

Download Hindi Audio 5.1 500MB

0 0 vote
Article Rating
Subscribe
Notify of
guest
0 Comments
Inline Feedbacks
View all comments