Avatar (2009) Extended UHD 2160p Re-Grade 4000nit HDR HEVC x265 DTS-HDMA 5.1 – POTO | G- Drive | 34.9 GB |

Format : Matroska
Format version : Version 4
File size : 35.0 GiB
Duration : 2 h 58 min
Overall bit rate mode : Variable
Overall bit rate : 28.1 Mb/s
Movie name : ?????? (??????????? ??????) / Avatar (Extended Cut) 2009 | UHD Re-Grade HDR 4000nit | IVA(RUS.UKR.ENG) | ExKinoRay
Encoded date : UTC 2019-04-28 21:07:40
Writing application : mkvmerge v30.1.0 (‘Forever And More’) 64-bit
Writing library : libebml v1.3.6 + libmatroska v1.4.9
Attachments : Avatar_0.ttf / Europe_Ext_0.ttf
Writing frontend : StaxRip v2.0.0.0

Video
ID : 1
Format : HEVC
Format/Info : High Efficiency Video Coding
Commercial name : HDR10
Format profile : Main [email protected]@Main
Codec ID : V_MPEGH/ISO/HEVC
Duration : 2 h 58 min
Bit rate : 23.9 Mb/s
Width : 3 840 pixels
Height : 2 160 pixels
Display aspect ratio : 16:9
Frame rate mode : Constant
Frame rate : 23.976 (24000/1001) FPS
Color space : YUV
Chroma subsampling : 4:2:0 (Type 2)
Bit depth : 10 bits
Bits/(Pixel*Frame) : 0.120
Stream size : 29.8 GiB (85%)
Language : English
Default : Yes
Forced : No
Color range : Limited
Color primaries : BT.2020
Transfer characteristics : PQ
Matrix coefficients : BT.2020 non-constant
Mastering display color primaries : Display P3
Mastering display luminance : min: 0.0001 cd/m2, max: 1000 cd/m2
Maximum Content Light Level : 3000 cd/m2
Maximum Frame-Average Light Level : 600 cd/m2

Audio
ID : 2
Format : DTS XLL
Format/Info : Digital Theater Systems
Commercial name : DTS-HD Master Audio
Codec ID : A_DTS
Duration : 2 h 58 min
Bit rate mode : Variable
Bit rate : 4 133 kb/s
Channel(s) : 6 channels
Channel layout : C L R Ls Rs LFE
Sampling rate : 48.0 kHz
Frame rate : 93.750 FPS (512 SPF)
Bit depth : 24 bits
Compression mode : Lossless
Stream size : 5.14 GiB (15%)
Language : English
Default : Yes
Forced : No

Text #1
ID : 3
Format : UTF-8
Codec ID : S_TEXT/UTF8
Codec ID/Info : UTF-8 Plain Text
Duration : 1 h 59 min
Bit rate : 2 b/s
Count of elements : 82
Stream size : 1.92 KiB (0%)
Language : English
Default : Yes
Forced : Yes

Text #2
ID : 4
Format : UTF-8
Codec ID : S_TEXT/UTF8
Codec ID/Info : UTF-8 Plain Text
Duration : 2 h 53 min
Bit rate : 40 b/s
Count of elements : 1683
Stream size : 51.1 KiB (0%)
Language : English
Default : No
Forced : No

Text #3
ID : 5
Format : UTF-8
Codec ID : S_TEXT/UTF8
Codec ID/Info : UTF-8 Plain Text
Duration : 2 h 57 min
Bit rate : 45 b/s
Count of elements : 2203
Stream size : 58.6 KiB (0%)
Language : English
Default : No
Forced : No

Text #4
ID : 6
Format : PGS
Muxing mode : zlib
Codec ID : S_HDMV/PGS
Codec ID/Info : Picture based subtitle format used on BDs/HD-DVDs
Duration : 2 h 57 min
Bit rate : 24.7 kb/s
Count of elements : 2801
Stream size : 31.3 MiB (0%)
Language : English
Default : No
Forced : No

Text #5
ID : 7
Format : PGS
Muxing mode : zlib
Codec ID : S_HDMV/PGS
Codec ID/Info : Picture based subtitle format used on BDs/HD-DVDs
Duration : 2 h 57 min
Bit rate : 31.3 kb/s
Count of elements : 4376
Stream size : 39.8 MiB (0%)
Language : English
Default : No
Forced : No

Text #6
ID : 8
Format : PGS
Muxing mode : zlib
Codec ID : S_HDMV/PGS
Codec ID/Info : Picture based subtitle format used on BDs/HD-DVDs
Duration : 2 h 42 min
Bit rate : 1 520 b/s
Count of elements : 152
Stream size : 1.77 MiB (0%)
Language : English
Default : No
Forced : No

Text #7
ID : 9
Format : ASS
Codec ID : S_TEXT/ASS
Codec ID/Info : Advanced Sub Station Alpha
Duration : 2 h 54 min
Bit rate : 303 b/s
Count of elements : 1875
Compression mode : Lossless
Stream size : 387 KiB (0%)
Language : Chinese
Default : No
Forced : No

Menu
00:00:00.000 : en:Lost Soul
00:05:25.575 : en:A New World
00:10:24.457 : en:You Are Not in Kansas Anymore
00:11:47.916 : en:”This Is Your Avatar Now, Jake.”
00:15:59.208 : en:”This Is Why We’re Here…”
00:23:54.892 : en:Meeting Trudy
00:24:40.000 : en:Colonel Quaritch
00:27:54.548 : en:First Sortie
00:30:27.617 : en:Abandoned Schoolhouse
00:32:04.464 : en:Thanator Chase
00:37:16.526 : en:A Sign
00:39:08.054 : en:Viperwolves
00:41:18.476 : en:Neytiri
00:49:16.912 : en:The Omaticaya Clan
00:55:42.214 : en:Covert Report
01:01:09.416 : en:The Hallelujah Mountains
01:07:03.227 : en:Learn Fast or Die
01:11:50.222 : en:A Mother’s Pain
01:18:07.891 : en:Banshee Rookery
01:22:38.120 : en:First Flight
01:26:12.709 : en:Clan Hunt
01:27:54.436 : en:Last Shadow
01:33:00.408 : en:A Son of the Omaticaya
01:37:36.642 : en:Willow Glade Destruction
01:46:49.236 : en:Conflict Escalation
01:50:02.596 : en:”You Will Never Be One of the People!”
01:51:53.582 : en:Assault on Home Tree
01:58:30.895 : en:Aftermath
02:02:13.284 : en:Escape From Hell’s Gate
02:07:51.664 : en:”There’s Something We Gotta Do…”
02:09:30.554 : en:Toruk Macto
02:12:36.615 : en:”She’s Real”
02:16:03.363 : en:Recuiting the Clans
02:19:31.655 : en:Preamble to Battle
02:23:59.631 : en:Battle for Pandora
02:32:13.291 : en:Fall of the Heroes
02:34:52.908 : en:Eywa
02:40:02.259 : en:Quaritch Fight
02:46:30.814 : en:”I See You”
02:46:48.498 : en:My Brother
02:48:56.793 : en:Transformation
02:51:32.073 : en:End Credits

19c05f7dfef897e9ad1cc07b5fa51722.md.jpg
0275aa998142045219a5842134c480c2.md.jpg
80ebcbf57bbcec2636921a71cfa22643.md.jpg
85f544b6affbd0eea31f7e80669ea5bd.md.jpg
87a17d88369363f0c51eb024e06a1d53.md.jpg
98c0f264b5fed2f2cb6ae191ad7befbf.md.jpg

G- Drive Download Full Movie 35 GB

G- Drive Parts 4.5 GB

Avatar (2009) Extended UHD 2160p Re-Grade 4000nit HDR HEVC x265 DTS-HDMA 5.1 – POTO.part08.rar – 4.3 GB

Avatar (2009) Extended UHD 2160p Re-Grade 4000nit HDR HEVC x265 DTS-HDMA 5.1 – POTO.part07.rar – 4.4 GB

Avatar (2009) Extended UHD 2160p Re-Grade 4000nit HDR HEVC x265 DTS-HDMA 5.1 – POTO.part06.rar – 4.4 GB

Avatar (2009) Extended UHD 2160p Re-Grade 4000nit HDR HEVC x265 DTS-HDMA 5.1 – POTO.part05.rar – 4.4 GB

Avatar (2009) Extended UHD 2160p Re-Grade 4000nit HDR HEVC x265 DTS-HDMA 5.1 – POTO.part04.rar – 4.4 GB

Avatar (2009) Extended UHD 2160p Re-Grade 4000nit HDR HEVC x265 DTS-HDMA 5.1 – POTO.part03.rar – 4.4 GB

Avatar (2009) Extended UHD 2160p Re-Grade 4000nit HDR HEVC x265 DTS-HDMA 5.1 – POTO.part02.rar – 4.4 GB

Avatar (2009) Extended UHD 2160p Re-Grade 4000nit HDR HEVC x265 DTS-HDMA 5.1 – POTO.part01.rar – 4.4 GB

0 0 vote
Article Rating
Subscribe
Notify of
guest
0 Comments
Inline Feedbacks
View all comments