Aquaman (2018) 1080p BDRip x264 Dual Audio [Hindi BD DD5.1 – English DD5.1] – MSUBS ~ Ranvijay [Team SSX]

Format                                   : Matroska
Format version                           : Version 4 / Version 2
File size                                : 5.93 GiB
Duration                                 : 2 h 23 min
Overall bit rate                         : 5 917 kb/s
Movie name                               : Aquaman (2018) 1080p BDRip x264 Dual Audio [Hindi BD DD5.1 – English DD5.1] – MSUBS ~ Ranvijay

Video
ID                                       : 1
Format                                   : AVC
Format/Info                              : Advanced Video Codec
Duration                                 : 2 h 23 min
Bit rate                                 : 5 000 kb/s
Width                                    : 1 920 pixels
Height                                   : 800 pixels
Display aspect ratio                     : 2.40:1
Frame rate mode                          : Constant
Frame rate                               : 23.976 (24000/1001) FPS
Color space                              : YUV
Chroma subsampling                       : 4:2:0
Bit depth                                : 8 bits
Scan type                                : Progressive
Bits/(Pixel*Frame)                       : 0.136
Stream size                              : 5.00 GiB (84%)
Title                                    : ~Ranvijay~

Audio #1
ID                                       : 2
Format                                   : AC-3
Format/Info                              : Audio Coding 3
Codec ID                                 : A_AC3
Duration                                 : 2 h 23 min
Bit rate mode                            : Constant
Bit rate                                 : 448 kb/s
Channel(s)                               : 6 channels
Channel positions                        : Front: L C R, Side: L R, LFE
Sampling rate                            : 48.0 kHz
Frame rate                               : 31.250 FPS (1536 SPF)
Bit depth                                : 16 bits
Compression mode                         : Lossy
Stream size                              : 459 MiB (8%)
Title                                    : ~Ranvijay~
Language                                 : Hindi
Service kind                             : Complete Main
Default                                  : Yes
Forced                                   : Yes

Audio #2
ID                                       : 3
Format                                   : AC-3
Format/Info                              : Audio Coding 3
Codec ID                                 : A_AC3
Duration                                 : 2 h 23 min
Bit rate mode                            : Constant
Bit rate                                 : 448 kb/s
Channel(s)                               : 6 channels
Channel positions                        : Front: L C R, Side: L R, LFE
Sampling rate                            : 48.0 kHz
Frame rate                               : 31.250 FPS (1536 SPF)
Bit depth                                : 16 bits
Compression mode                         : Lossy
Stream size                              : 459 MiB (8%)
Title                                    : ~Ranvijay~
Language                                 : English
Service kind                             : Complete Main
Default                                  : No
Forced                                   : No

Text #1
ID                                       : 4
Format                                   : PGS
Muxing mode                              : zlib
Codec ID                                 : S_HDMV/PGS
Codec ID/Info                            : Picture based subtitle format used on BDs/HD-DVDs
Duration                                 : 2 h 22 min
Bit rate                                 : 25.8 kb/s
Count of elements                        : 2940
Stream size                              : 26.4 MiB (0%)
Title                                    : ~Ranvijay~
Language                                 : English
Default                                  : Yes
Forced                                   : Yes

Text #2
ID                                       : 5
Format                                   : PGS
Muxing mode                              : zlib
Codec ID                                 : S_HDMV/PGS
Codec ID/Info                            : Picture based subtitle format used on BDs/HD-DVDs
Duration                                 : 2 h 22 min
Bit rate                                 : 25.8 kb/s
Count of elements                        : 2940
Stream size                              : 26.4 MiB (0%)
Title                                    : ~Ranvijay~
Language                                 : English
Default                                  : No
Forced                                   : No

Text #3
ID                                       : 6
Format                                   : PGS
Muxing mode                              : zlib
Codec ID                                 : S_HDMV/PGS
Codec ID/Info                            : Picture based subtitle format used on BDs/HD-DVDs
Duration                                 : 2 h 22 min
Bit rate                                 : 11.4 kb/s
Count of elements                        : 2262
Stream size                              : 11.6 MiB (0%)
Title                                    : ~Ranvijay~
Language                                 : Arabic
Default                                  : No
Forced                                   : No

Menu
00:00:00.000                             : en:00:00:00.000
00:11:09.294                             : en:00:11:09.294
00:22:11.622                             : en:00:22:11.622
00:30:11.018                             : en:00:30:11.018
00:40:28.718                             : en:00:40:28.718
00:50:24.647                             : en:00:50:24.647
01:01:15.755                             : en:01:01:15.755
01:08:57.091                             : en:01:08:57.091
01:21:41.271                             : en:01:21:41.271
01:34:50.435                             : en:01:34:50.435
01:39:37.430                             : en:01:39:37.430
01:49:32.816                             : en:01:49:32.816
02:01:36.539                             : en:02:01:36.539
02:10:19.895                             : en:02:10:19.895

G- Drive Download  5.93 GB

0 0 vote
Article Rating
Subscribe
Notify of
guest
3 Comments
Oldest
Newest Most Voted
Inline Feedbacks
View all comments
Mr.shafi
1 year ago

thanks for completing request

Mr.shafi
1 year ago

thanks for completing my request

Sid
Sid
9 months ago

Hi Desilinks.in site cant be reached. Looks like its Down. Can you plz provide another GDRIVE Link.
Thank You