Anjaana Anjaani (2010) 1080p 12mbps JC WEB-DL ~ Invictus ~ DusicTV | 13 GB | 4 GB |

General

Format : MPEG-4

Codec ID : isom (isom/iso2/avc1/mp41)
File size : 12.8 GiB
Duration : 2 h 31 min
Overall bit rate : 12.1 Mb/s
Writing application : Lavf58.27.103

Video
ID : 1
Format : AVC
Format/Info : Advanced Video Codec
Format profile : [email protected]
Format settings : CABAC / 4 Ref Frames
Format settings, CABAC : Yes
Format settings, Reference frames : 4 frames
Codec ID : avc1
Codec ID/Info : Advanced Video Coding
Duration : 2 h 31 min
Bit rate : 12.0 Mb/s
Width : 1 920 pixels
Height : 816 pixels
Display aspect ratio : 2.35:1
Frame rate mode : Constant
Frame rate : 24.000 FPS
Color space : YUV
Chroma subsampling : 4:2:0
Bit depth : 8 bits
Scan type : Progressive
Bits/(Pixel*Frame) : 0.319
Stream size : 12.6 GiB (98%)
Writing library : x264 core 148

Audio
ID : 2
Format : AAC LC
Format/Info : Advanced Audio Codec Low Complexity
Codec ID : mp4a-40-2
Duration : 2 h 31 min
Bit rate mode : Constant
Bit rate : 192 kb/s
Channel(s) : 2 channels
Channel layout : L R
Sampling rate : 48.0 kHz
Frame rate : 46.875 FPS (1024 SPF)
Compression mode : Lossy
Stream size : 208 MiB (2%)
Default : Yes
Alternate group : 1

Screenshots:

Anjaana Anjaani (2010) 1080p 12mbps JC WEB-DL ~ Invictus.mp4 [13 GB]

https://new.gdtot.com/file/13777169629

https://sharer.pw/file/jxox-zx4aVC

—————————————-

Anjaana Anjaani (2010) [By-DusicTv].mkv [4 GB]

https://new.gdtot.com/file/12269380932

https://sharer.pw/file/dHCw_aaPUBx

0 0 vote
Article Rating
Subscribe
Notify of
guest
6 Comments
Oldest
Newest Most Voted
Inline Feedbacks
View all comments
salman
1 year ago

plz upload ishaqzaade 2012 in 1080p and reupload new york 2009 movie in 1080p because the link u provided are dead now

movieworm
movieworm
1 year ago

please upload parts of this movie in fileslocker or gdrive links

Himanshu Joshi
Himanshu Joshi
1 year ago

Friend please upload Sunday 2008 bollywood movie full hd print and Dhoom 2004 bluray full HD 1080p both movies request please

SaturnWeb
Admin
Reply to  Himanshu Joshi
1 year ago

We Are Working On It