Anjaan (2011) Tamil (MUSIC VIDEO ALBUM) Untouched – BD50 LPCM DTS-HDMA 5.1 ESuBS

General
ID                                      : 1 (0x1)
Format                                  : BDAV
Format                                  : M2ts
Format/Info                              : Blu-ray Video
File size                                : 8.24 GB
Overall bit rate mode                    : Variable
Overall bit rate                        : 42.6 Mb/s
Maximum Overall bit rate                : 35.5 Mb/s

Video
ID                                      : 4113 (0x1011)
Menu ID                                  : 1 (0x1)
Format                                  : AVC
Format/Info                              : Advanced Video Codec
Format profile                          : [email protected]
Format settings                          : CABAC / 3 Ref Frames
Format settings, CABAC                  : Yes
Format settings, RefFrames              : 3 frames
Format settings, GOP                    : M=4, N=12
Codec ID                                : 27
Bit rate mode                            : Variable
Maximum bit rate                        : 35.0 Mb/s
Width                                    : 1 920 pixels
Height                                  : 1 080 pixels
Display aspect ratio                    : 16:9
Frame rate                              : 23.976 (24000/1001) FPS
Standard                                : NTSC
Color space                              : YUV
Chroma subsampling                      : 4:2:0
Bit depth                                : 8 bits
Scan type                                : Progressive
Language                                : English
Color range                              : Limited
Color primaries                          : BT.709
Transfer characteristics                : BT.709
Matrix coefficients                      : BT.709

Audio #1
ID                                      : 4352 (0x1100)
Menu ID                                  : 1 (0x1)
Format                                  : DTS XLL
Format/Info                              : Digital Theater Systems
Commercial name                          : DTS-HD Master Audio
Muxing mode                              : Stream extension
Codec ID                                : 134
Bit rate mode                            : Variable
Channel(s)                              : 6 channels
Channel layout                          : C L R Ls Rs LFE
Sampling rate                            : 48.0 kHz
Frame rate                              : 93.750 FPS (512 SPF)
Bit depth                                : 16 bits
Compression mode                        : Lossless
Delay relative to video                  : -35 ms
Language                                : English

Audio #2
ID                                      : 4353 (0x1101)
Menu ID                                  : 1 (0x1)
Format                                  : DTS
Format/Info                              : Digital Theater Systems
Codec ID                                : 130
Bit rate mode                            : Constant
Bit rate                                : 1 509 kb/s
Channel(s)                              : 6 channels
Channel layout                          : C L R Ls Rs LFE
Sampling rate                            : 48.0 kHz
Frame rate                              : 93.750 FPS (512 SPF)
Bit depth                                : 16 bits
Compression mode                        : Lossy
Delay relative to video                  : -35 ms
Stream size                              : 49.9 MiB (4%)
Language                                : English

Audio #3
ID                                      : 4354 (0x1102)
Menu ID                                  : 1 (0x1)
Format                                  : PCM
Format settings                          : Big / Signed
Muxing mode                              : Blu-ray
Codec ID                                : 128
Bit rate mode                            : Constant
Bit rate                                : 4 608 kb/s
Channel(s)                              : 6 channels
Channel layout                          : L R C Ls Rs LFE
Sampling rate                            : 48.0 kHz
Bit depth                                : 16 bits
Delay relative to video                  : -40 ms
Stream size                              : 152 MiB (11%)
Language                                : English

Text
ID                                      : 4608 (0x1200)
Menu ID                                  : 1 (0x1)
Format                                  : PGS
Codec ID                                : 144
Language                                : English


::::ScreenShots::::

01-Bang Bang Bang [TeaM DuS].m2ts – 1.4 GB

02-Kaadhal Aasai [TeaM DuS].m2ts – 2.4 GB

03-Oru Kan Jaadai [TeaM DuS].m2ts – 1.3 GB

04-Ek Do Theen [TeaM DuS].m2ts – 1.3 GB

05-Sirippu En [TeaM DuS].m2ts – 1.5 GB

06-Bang Bang Bang End Roll [TeaM DuS].m2ts – 347.9 MB

0 0 vote
Article Rating
Subscribe
Notify of
guest
2 Comments
Oldest
Newest Most Voted
Inline Feedbacks
View all comments
Tariq 806
Tariq 806
1 year ago

Dear Sir….

my need telugu movie video song

★ Yevadu (2014) BD50 – Untouched – BluRay – 1080p – AVC – DTS – HDMA – M2TS Songs

★ Aagadu (2014) BD50 – Untouched BluRay 1080p AVC DTS HDMA M2TS

plz upload for me

rishi
rishi
10 months ago

link not working