ALL THE BEST (2009)[ 4K ] VIDEO SONGS – UNTOUCHED (UHD) BluRay 10 bit – DTS-HD 5.1/AC3 5.1 | 8 GB | DB9 |


Media Info:

Video
ID : 1
Format : HEVC
Format/Info : High Efficiency Video Coding
Format profile : Main [email protected]@High
Codec ID : V_MPEGH/ISO/HEVC
Duration : 3 min 20 s
Bit rate : 74.9 Mb/s
Width : 3 840 pixels
Height : 1 632 pixels
Display aspect ratio : 2.35:1
Frame rate mode : Constant
Frame rate : 24.000 FPS
Color space : YUV
Chroma subsampling : 4:2:0
Bit depth : 10 bits
Bits/(Pixel*Frame) : 0.498
Stream size : 1.74 GiB (93%)
Default : Yes
Forced : No
Color range : Limited
Color primaries : BT.709
Transfer characteristics : BT.709
Matrix coefficients : BT.709

Audio #1
ID : 4
Format : DTS XLL
Format/Info : Digital Theater Systems
Commercial name : DTS-HD Master Audio
Codec ID : A_DTS
Duration : 3 min 19 s
Bit rate mode : Variable
Bit rate : 4 990 kb/s
Channel(s) : 6 channels
Channel layout : C L R Ls Rs LFE
Sampling rate : 48.0 kHz
Frame rate : 93.750 FPS (512 SPF)
Bit depth : 24 bits
Compression mode : Lossless
Stream size : 119 MiB (6%)
Default : Yes
Forced : No

Audio #2
ID : 2
Format : AC-3
Format/Info : Audio Coding 3
Commercial name : Dolby Digital
Codec ID : A_AC3
Duration : 3 min 19 s
Bit rate mode : Constant
Bit rate : 640 kb/s
Channel(s) : 6 channels
Channel layout : L R C LFE Ls Rs
Sampling rate : 48.0 kHz
Frame rate : 31.250 FPS (1536 SPF)
Compression mode : Lossy
Stream size : 15.2 MiB (1%)
Service kind : Complete Main
Default : No
Forced : No

Audio #3
ID : 3
Format : AC-3
Format/Info : Audio Coding 3
Commercial name : Dolby Digital
Codec ID : A_AC3
Duration : 3 min 20 s
Bit rate mode : Constant
Bit rate : 192 kb/s
Channel(s) : 2 channels
Channel layout : L R
Sampling rate : 48.0 kHz
Frame rate : 31.250 FPS (1536 SPF)
Compression mode : Lossy
Stream size : 4.59 MiB (0%)
Service kind : Complete Main
Default : No
Forced : No


Screenshots:

Title Song – ALL THE BEST (2009) UNTOUCHED VIDEO SONGS 4K (UHD) BluRay 10 bit – DTS-HD 5.1 –1.87 GB – DB9 ( 1.87 GB )

https://drive.klop.me/file/fe61f5607d

Dil Kare – ALL THE BEST (2009) UNTOUCHED VIDEO SONGS 4K (UHD) BluRay 10 bit – DTS-HD 5.1 –2.33 GB – DB9 ( 2.33 GB )

https://drive.klop.me/file/d0e97465da

Han Main Jitni Martaba – ALL THE BEST (2009) UNTOUCHED VIDEO SONGS 4K (UHD) BluRay 10 bit – DTS-HD 5.1 –1.74 GB – DB9 ( 1.74 GB )

https://drive.klop.me/file/bc264d0118

Kyon – ALL THE BEST (2009) UNTOUCHED VIDEO SONGS 4K (UHD) BluRay 10 bit – DTS-HD 5.1 –2.06 GB – DB9 ( 2.06 GB )

https://drive.klop.me/file/8483908868

0 0 vote
Article Rating
Subscribe
Notify of
guest
1 Comment
Oldest
Newest Most Voted
Inline Feedbacks
View all comments
SaturnWeb
Admin
1 year ago

Great Encode