Aksar (2006) Hindi 1080p Untouched WebHD AVC {Music Video} ESuBS By-DusIcTv

xxxxxxxxxxxxxxxxxxxxxxxxxxxxxxxxxxxxxxxxxxxxxxxxxxxxxxxxxxxxxxx
Aksar (2006) Hindi 1080p Untouched WebHD AVC {Music Video} ESuBS By-DusIcTv
xxxxxxxxxxxxxxxxxxxxxxxxxxxxxxxxxxxxxxxxxxxxxxxxxxxxxxxxxxxxxxx

Media info
General
Format : Matroska
Format version : Version 4
File size : 610 MB
Overall bit rate : 4 512 kb/s
Encoded date : UTC 2019-08-04 15:28:51
Writing application : mkvmerge v35.0.0 (‘All The Love In The World’) 64-bit
Writing library : libebml v1.3.9 + libmatroska v1.5.2

Video
ID : 1
Format : AVC
Format/Info : Advanced Video Codec
Format profile : [email protected]
Format settings : CABAC / 1 Ref Frames
Format settings, CABAC : Yes
Format settings, Reference frames : 1 frame
Format settings, GOP : M=1, N=25
Codec ID : V_MPEG4/ISO/AVC
Bit rate mode : Constant
Bit rate : 4 500 kb/s
Width : 1 920 pixels
Height : 1 080 pixels
Display aspect ratio : 16:9
Frame rate mode : Constant
Frame rate : 25.000 FPS
Color space : YUV
Chroma subsampling : 4:2:0
Bit depth : 8 bits
Scan type : Progressive
Bits/(Pixel*Frame) : 0.087
Stream size : 80.1 MiB (99%)
Title : DusIcTv
Default : Yes
Forced : No

Audio
ID : 2
Format : AAC LC
Format/Info : Advanced Audio Codec Low Complexity
Codec ID : A_AAC-2
Bit rate : 61.4 kb/s
Channel(s) : 2 channels
Channel layout : L R
Sampling rate : 48.0 kHz
Frame rate : 46.875 FPS (1024 SPF)
Compression mode : Lossy
Delay relative to video : 3 ms
Stream size : 1.11 MiB (1%)
Title : DusIcTv
Default : Yes
Forced : No

Screen Shot

G- Drive Download

01-Aksar (Theme) [By-DusIcTv].mkv – 81.2 MB

02-Jhalak Dikhlaja [By-DusIcTv].mkv – 144.7 MB

03-Soniye [By-DusIcTv].mkv – 127.3 MB

04-Loot Jayenge [By-DusIcTv].mkv – 139.6 MB

05-Mohabbat Ke [By-DusIcTv].mkv – 117.8 MB

 

0 0 vote
Article Rating
Subscribe
Notify of
guest
3 Comments
Oldest
Newest Most Voted
Inline Feedbacks
View all comments
JustCampMan
JustCampMan
1 year ago

Is Laagi Laagi missing?

KingPin
KingPin
1 year ago

Laagi Laagi from Aksar is missing

Tariq 806
Tariq 806
1 year ago

Dear Sir plz upload Emraan Hashmi any movie song