Ajab Prem Ki Ghazab Kahani (2009) VIDEO SONGS 4K (UHD) x265 BluRay 10 bit – DTS-HD 5.1 –| 8.6 GB | DB9 |


Media Info:

This Movie was upscale form 1080p REMUX of original Blue-ray DISC ENCODED to 4K UHD

Description

Also Known As:  A Wonderful Story About Strange Love

Video
Format : HEVC
Format/Info : High Efficiency Video Coding
Format profile : Main [email protected]@High
Codec ID : V_MPEGH/ISO/HEVC
Duration : 2 min 11 s
Bit rate : 76.8 Mb/s
Width : 3 840 pixels
Height : 1 632 pixels
Display aspect ratio : 2.35:1
Frame rate mode : Constant
Frame rate : 24.000 FPS
Color space : YUV
Chroma subsampling : 4:2:0
Bit depth : 10 bits
Bits/(Pixel*Frame) : 0.510
Stream size : 1.17 GiB (94%)
Default : Yes
Forced : No
Color range : Limited
Color primaries : BT.709
Transfer characteristics : BT.709
Matrix coefficients : BT.709

Audio
Format : DTS XLL
Format/Info : Digital Theater Systems
Commercial name : DTS-HD Master Audio
Codec ID : A_DTS
Duration : 2 min 11 s
Bit rate mode : Variable
Bit rate : 4 996 kb/s
Channel(s) : 6 channels
Channel layout : C L R Ls Rs LFE
Sampling rate : 48.0 kHz
Frame rate : 93.750 FPS (512 SPF)
Bit depth : 24 bits
Compression mode : Lossless
Stream size : 78.4 MiB (6%)
Language : Hindi
Default : Yes
Forced : No


Screenshots:

Aajao Meri Tamanna [ 4K ] APKGK (2009) UHD BluRay AVC DTS-HDMA 5.1 – 1.24 GB

https://drive.klop.me/file/efbf025db1

Prem Ki Naiya [ 4K ] APKGK (2009) UHD BluRay AVC DTS-HDMA 5.1 – 1.75 GB

https://drive.klop.me/file/7e657e4f52

Tera Hone Laaga [ 4K ] APKGK (2009) UHD BluRay AVC DTS-HDMA 5.1.- 1.42 GB

https://drive.klop.me/file/0f32ada052

Tu Jaane Na [ 4K ] APKGK (2009) UHD BluRay AVC DTS-HDMA 5.1.- 2.17 GB

https://drive.klop.me/file/8e88f585dd

Main Tera Dhadkan Teri [ 4K ] APKGK (2009) UHD BluRay AVC DTS-HDMA 5.1.- 2.03 GB

https://drive.klop.me/file/1ff12c34bd

0 0 vote
Article Rating
Subscribe
Notify of
guest
6 Comments
Oldest
Newest Most Voted
Inline Feedbacks
View all comments
Barik3
Barik3
1 year ago

Thank you very much…

Krishnaa Maity
Krishnaa Maity
1 year ago

Thanks a lot

Tushar
Tushar
7 months ago

Thanks

SATYAJRRT
SATYAJRRT
1 month ago

file doesnt exists