Ajab Prem Ki Ghazab Kahani (2009) (MUSIC VIDEOS ALBUM) 1080p Blu-Ray Rip DTS-HDMA 5.1 By-DusIcTv

Ajab Prem Ki Ghazab Kahani (2009) (MUSIC VIDEOS ALBUM) 1080p Blu-Ray Rip DTS-HDMA 5.1 By-DusIcTv

xxxxxxxxxxxxxxxxxxxxxxxxxxxxxxxxxxxxxxxxxxxxxxxxxxxxxxxxxxxxxxxxxxxxxxxxxxxxxxxxxxxxxxxxxxxxxxxxxxx
Ajab Prem Ki Ghazab Kahani (2009) (MUSIC VIDEOS ALBUM) 1080p Blu-Ray Rip DTS-HDMA 5.1 By-DusIcTv
xxxxxxxxxxxxxxxxxxxxxxxxxxxxxxxxxxxxxxxxxxxxxxxxxxxxxxxxxxxxxxxxxxxxxxxxxxxxxxxxxxxxxxxxxxxxxxxxxxx

:details:

Format : Matroska
Format version : Version 4
File size : 2.38 GB
Overall bit rate mode : Variable
Overall bit rate : 16.5 Mb/s
Writing application : mkvmerge v36.0.0 (‘Is That Jazz?’) 32-bit
Writing library : libebml v1.3.9 + libmatroska v1.5.2

Video
ID : 1
Format : AVC
Format/Info : Advanced Video Codec
Format profile : [email protected]
Format settings : CABAC / 4 Ref Frames
Format settings, CABAC : Yes
Format settings, Reference frames : 4 frames
Codec ID : V_MPEG4/ISO/AVC
Bit rate : 11.4 Mb/s
Width : 1 920 pixels
Height : 816 pixels
Display aspect ratio : 2.35:1
Frame rate mode : Constant
Frame rate : 24.000 FPS
Color space : YUV
Chroma subsampling : 4:2:0
Bit depth : 8 bits
Scan type : Progressive
Bits/(Pixel*Frame) : 0.303
Stream size : 249 MiB (69%)
Default : Yes
Forced : No

Audio
ID : 2
Format : DTS XLL
Format/Info : Digital Theater Systems
Commercial name : DTS-HD Master Audio
Codec ID : A_DTS
Bit rate mode : Variable
Bit rate : 5 097 kb/s
Channel(s) : 6 channels
Channel layout : C L R Ls Rs LFE
Sampling rate : 48.0 kHz
Frame rate : 93.750 FPS (512 SPF)
Bit depth : 24 bits
Compression mode : Lossless
Delay relative to video : 1 ms
Stream size : 111 MiB (31%)
Language : Hindi
Default : Yes
Forced : No

Text
ID : 3
Format : PGS
Muxing mode : zlib
Codec ID : S_HDMV/PGS
Codec ID/Info : Picture based subtitle format used on BDs/HD-DVDs
Bit rate : 23.1 kb/s
Count of elements : 32
Stream size : 450 KiB (0%)
Language : English
Default : Yes
Forced : No

:screenshots:









:download2:
01-Aa Jao Meri Tamanna [By-DusIcTv].mkv   263.77 MB

https://thefileslocker.com/zv7aralwrm0u.html

02-Prem Ki Naiyya [By-DusIcTv].mkv   360.62 MB

https://thefileslocker.com/5prie18sha72.html

03-Follow Me [By-DusIcTv].mkv   193.13 MB

https://thefileslocker.com/23axdf4r4fyv.html

04-Tera Hone Laga Hoon [By-DusIcTv].mkv   272.17 MB

https://thefileslocker.com/500avttsas8v.html

05-Tu Jaane Na [By-DusIcTv].mkv   448.95 MB

https://thefileslocker.com/j0o38jn74jko.html

06-Main Tera Dhadkan [By-DusIcTv].mkv   464.69 MB

https://thefileslocker.com/ljrsid3atfuq.html

07-Tera Hone Laga Hoon (End Roll) [By-DusIcTv].mkv   435.43 MB

https://thefileslocker.com/0t3ckve9rpz6.html

https://thefileslocker.com/yw287wqtzjba.html
https://desiupload.to/f/a4etnw-myc1tftqby3n3
https://uptobox.com/ada4g9i0uiog

0 0 vote
Article Rating
Subscribe
Notify of
guest
4 Comments
Oldest
Newest Most Voted
Inline Feedbacks
View all comments
Raja rajgonda
Raja rajgonda
1 year ago

Please upload taarzan the wonder car

Tushar
Tushar
9 months ago

please provide gdrive links for these too.