Aitraaz (2004) Hindi 1080p WebHD AVC DDP 5.1 {Music Video} ESuBS By-DusIcTv

Media info

General
Format                                   : Matroska
Format version                           : Version 4
File size                                : 2.39 GB
Overall bit rate                         : 14.5 Mb/s
Encoded date                             : UTC 2019-07-17 02:54:52
Writing application                      : mkvmerge v35.0.0 (‘All The Love In The World’) 64-bit
Writing library                          : libebml v1.3.9 + libmatroska v1.5.2

Video
ID                                       : 1
Format                                   : AVC
Format/Info                              : Advanced Video Codec
Format profile                           : [email protected]
Format settings                          : CABAC / 4 Ref Frames
Format settings, CABAC                   : Yes
Format settings, Reference frames        : 4 frames
Codec ID                                 : V_MPEG4/ISO/AVC
Bit rate                                 : 14.1 Mb/s
Width                                    : 1 920 pixels
Height                                   : 816 pixels
Display aspect ratio                     : 2.35:1
Frame rate mode                          : Constant
Frame rate                               : 24.000 FPS
Color space                              : YUV
Chroma subsampling                       : 4:2:0
Bit depth                                : 8 bits
Scan type                                : Progressive
Bits/(Pixel*Frame)                       : 0.375
Stream size                              : 436 MiB (97%)
Title                                    : DusIcTv
Default                                  : Yes
Forced                                   : No

Audio
ID                                       : 2
Format                                   : AC-3
Format/Info                              : Audio Coding 3
Commercial name                          : Dolby Digital
Codec ID                                 : A_AC3
Bit rate mode                            : Constant
Bit rate                                 : 384 kb/s
Channel(s)                               : 6 channels
Channel layout                           : L R C LFE Ls Rs
Sampling rate                            : 48.0 kHz
Frame rate                               : 31.250 FPS (1536 SPF)
Bit depth                                : 16 bits
Compression mode                         : Lossy
Delay relative to video                  : 18 ms
Stream size                              : 11.9 MiB (3%)
Title                                    : DusIcTv
Language                                 : Hindi
Service kind                             : Complete Main
Default                                  : Yes
Forced                                   : No

Text
ID                                       : 3
Format                                   : UTF-8
Codec ID                                 : S_TEXT/UTF8
Codec ID/Info                            : UTF-8 Plain Text
Bit rate                                 : 57 b/s
Count of elements                        : 44
Stream size                              : 1.51 KiB (0%)
Language                                 : English
Default                                  : Yes
Forced                                   : No

Screen Shot

G- Drive Downoad

01-Gela Gela Gela [By-DusIcTv].mkv – 447.5 MB

02-Tala Tum Tala Tum [By-DusIcTv].mkv – 690.8 MB

03-Yeh Dil Tumpe Aa Gaya [By-DusIcTv].mkv – 364.8 MB

04-Woh Tassavvur [By-DusIcTv].mkv – 483.8 MB

05-Aitraaz (I Want to Make Love to You) [By-DusIcTv].mkv – 342.8 MB

 

06-Aankhen Bandh Karke [By-DusIcTv].mkv – 120.7 MB

0 0 vote
Article Rating
Subscribe
Notify of
guest
0 Comments
Inline Feedbacks
View all comments