Aashiq (2001) Hindi 1080p Untouched HDTV AVC {Music Video} ESuBS By-DusIcTv

Aashiq (2001) Hindi 1080p Untouched HDTV AVC {Music Video} ESuBS By-DusIcTv

:details:
Format                                   : Matroska
Format version                           : Version 4
File size                                : 0.99 GB
Overall bit rate                         : 7 126 kb/s
Writing application   : mkvmerge v34.0.0 (‘Sight and Seen’) 64-bit
Writing library  : libebml v1.3.7 + libmatroska v1.5.0

Video
ID                                       : 1
Format                                   : AVC
Format/Info                              : Advanced Video Codec
Format profile                           : [email protected]
Format settings                          : CABAC / 4 Ref Frames
Format settings, CABAC                   : Yes
Format settings, Reference frames        : 4 frames
Codec ID                                 : V_MPEG4/ISO/AVC
Bit rate                                 : 6 871 kb/s
Width                                    : 1 920 pixels
Height                                   : 1 080 pixels
Display aspect ratio                     : 16:9
Frame rate mode                          : Constant
Frame rate                               : 25.000 FPS
Color space                              : YUV
Chroma subsampling                       : 4:2:0
Bit depth                                : 8 bits
Scan type                                : MBAFF
Scan type, store method                  : Interleaved fields
Scan order                               : Top Field First
Bits/(Pixel*Frame)                       : 0.133
Stream size                              : 275 MiB (96%)
Title                                    : DusIcTv
Default                                  : Yes
Forced                                   : No

Audio
ID                                       : 2
Format                                   : MPEG Audio
Format version                           : Version 1
Format profile                           : Layer 2
Format settings                          : Joint stereo / Intensity Stereo + MS Stereo
Codec ID                                 : A_MPEG/L2
Codec ID/Hint                            : MP2
Bit rate mode                            : Constant
Bit rate                                 : 256 kb/s
Channel(s)                               : 2 channels
Sampling rate                            : 48.0 kHz
Frame rate                               : 41.664 FPS (1152 SPF)
Compression mode                         : Lossy
Delay relative to video                  : 127 ms
Stream size                              : 10.2 MiB (4%)
Title                                    : DusIcTv
Language                                 : Hindi
Default                                  : Yes
Forced                                   : No

:screens:












 

:download2:
01-O Mere Dholna [By-DusIcTv].mkv   184.46 MB

https://thefileslocker.com/ssv10n2y3481.html

02-Charche Hain Hamare Chhed Do [By-DusIcTv].mkv   284.83 MB

https://thefileslocker.com/ruttsqmmy3c5.html

03-Gori Tera Nakhra [By-DusIcTv].mkv   222.48 MB

https://thefileslocker.com/1q0nwll1mih7.html

04-Aashiq Mujhe Aashiq [By-DusIcTv].mkv   142.96 MB

https://thefileslocker.com/48vzlikshv52.html

05-Gore Gore Gaal Mere [By-DusIcTv].mkv   184.42 MB

https://thefileslocker.com/xhywymdgtt2k.html

https://thefileslocker.com/eyjwxmco4mml.html

0 0 vote
Article Rating
Subscribe
Notify of
guest
0 Comments
Inline Feedbacks
View all comments