Aashik Aawara (1993) Hindi 1080p Untouched WebHD AVC DD Plus 2.0 {Music Video} ESuBS By-DusIcTv

Aashik Aawara (1993) Hindi 1080p Untouched WebHD AVC DD Plus 2.0 {Music Video} ESuBS By-DusIcTv

:details:

General
Format                                   : Matroska
Format version                           : Version 4
File size                                : 1.47 GB
Overall bit rate mode                    : Variable
Overall bit rate                         : 7 049 kb/s
Writing application : mkvmerge v34.0.0 (‘Sight and Seen’) 64-bit
Writing library   : libebml v1.3.7 + libmatroska v1.5.0

Video
ID                                       : 1
Format                                   : AVC
Format/Info                              : Advanced Video Codec
Format profile                           : [email protected]
Format settings                          : CABAC / 3 Ref Frames
Format settings, CABAC                   : Yes
Format settings, Reference frames        : 3 frames
Codec ID                                 : V_MPEG4/ISO/AVC
Bit rate mode                            : Variable
Bit rate                                 : 6 919 kb/s
Maximum bit rate                         : 9 285 kb/s
Width                                    : 1 920 pixels
Height                                   : 1 080 pixels
Display aspect ratio                     : 16:9
Frame rate mode                          : Constant
Frame rate                               : 25.000 FPS
Color space                              : YUV
Chroma subsampling                       : 4:2:0
Bit depth                                : 8 bits
Scan type                                : Progressive
Bits/(Pixel*Frame)                       : 0.133
Stream size                              : 99.0 MiB (98%)
Title                                    : DusIcTv
Default                                  : Yes
Forced                                   : No

Audio
ID                                       : 2
Format                                   : E-AC-3
Format/Info                              : Enhanced AC-3
Commercial name                          : Dolby Digital Plus
Codec ID                                 : A_EAC3
Bit rate mode                            : Constant
Bit rate                                 : 128 kb/s
Channel(s)                               : 2 channels
Channel layout                           : L R
Sampling rate                            : 48.0 kHz
Frame rate                               : 31.250 FPS (1536 SPF)
Compression mode                         : Lossy
Delay relative to video                  : 16 ms
Stream size                              : 1.83 MiB (2%)
Title                                    : DusIcTv
Language                                 : Hindi
Service kind                             : Complete Main
Default                                  : Yes
Forced                                   : No

Text
ID                                       : 3
Format                                   : UTF-8
Codec ID                                 : S_TEXT/UTF8
Codec ID/Info                            : UTF-8 Plain Text
Bit rate                                 : 118 b/s
Count of elements                        : 19
Stream size                              : 1.73 KiB (0%)
Language                                 : English
Default                                  : Yes
Forced                                   : Yes

:screens:









 

:download2:
01-Saat Suron Ke Sangam Se [By-DusIcTv].mkv   100.85

02-O Sanam Tere Aashik Hain Hum [By-DusIcTv].mkv   206.41 MB

https://thefileslocker.com/46t7xxvqfl5t.html

03-Main Hoon Aashiq [By-DusIcTv].mkv   264.18 MB

https://thefileslocker.com/wcbdy2ypdquu.html

04-Aaj Abhi Isi Waqt [By-DusIcTv].mkv   204.60 MB

https://thefileslocker.com/cy45fwvqzf3v.html

05-Jai Jagdish Hare [By-DusIcTv].mkv   81.59 MB

https://thefileslocker.com/5a1mbfg3r75x.html

06-Amar Mere Suhaag Rahe [By-DusIcTv].mkv   86.72 MB

https://thefileslocker.com/49w3z1lut72f.html

07-Chand Aur Piya [By-DusIcTv].mkv   245.47 MB

https://thefileslocker.com/qou8cuc1pga7.html

08-Maine Pyar Kar Liya [By-DusIcTv].mkv   285.81 MB

https://thefileslocker.com/9lr8jbmth9se.html

09-Aaj Abhi Isi Waqt (End Roll) [By-DusIcTv].mkv   36.30 MB

https://thefileslocker.com/moxhsqvpf66m.html

https://thefileslocker.com/t1t5dfd8dsj9.html

0 0 vote
Article Rating
Subscribe
Notify of
guest
0 Comments
Inline Feedbacks
View all comments