Aarakshan (2011) Hindi 1080p Untouched WebHD AVC DD Plus 2.0 {Music Video} ESuBS By-DusIcTv

Aarakshan (2011) Hindi 1080p Untouched WebHD AVC DD Plus 2.0 {Music Video} ESuBS By-DusIcTv


:details:

Format                                   : Matroska
Format version                           : Version 4
File size                                : 689 MB
Overall bit rate                         : 5 907 kb/s
Encoded date                             : UTC 2019-07-10 12:44:01
Writing application : mkvmerge v35.0.0 (‘All The Love In The World’) 64-bit
Writing library : libebml v1.3.9 + libmatroska v1.5.2

Video
ID                                       : 1
Format                                   : AVC
Format/Info                              : Advanced Video Codec
Format profile                           : [email protected]
Format settings                          : CABAC / 4 Ref Frames
Format settings, CABAC                   : Yes
Format settings, Reference frames        : 4 frames
Codec ID                                 : V_MPEG4/ISO/AVC
Bit rate                                 : 5 681 kb/s
Width                                    : 1 920 pixels
Height                                   : 1 080 pixels
Display aspect ratio                     : 16:9
Frame rate mode                          : Constant
Frame rate                               : 25.000 FPS
Color space                              : YUV
Chroma subsampling                       : 4:2:0
Bit depth                                : 8 bits
Scan type                                : Progressive
Bits/(Pixel*Frame)                       : 0.110
Stream size                              : 104 MiB (96%)
Title                                    : DusIcTv
Default                                  : Yes
Forced                                   : No
Color range                              : Limited
Color primaries                          : BT.709
Transfer characteristics                 : BT.709
Matrix coefficients                      : BT.709

Audio
ID                                       : 2
Format                                   : E-AC-3
Format/Info                              : Enhanced AC-3
Commercial name                          : Dolby Digital Plus
Codec ID                                 : A_EAC3
Bit rate mode                            : Constant
Bit rate                                 : 224 kb/s
Channel(s)                               : 2 channels
Channel layout                           : L R
Sampling rate                            : 48.0 kHz
Frame rate                               : 31.250 FPS (1536 SPF)
Compression mode                         : Lossy
Delay relative to video                  : 24 ms
Stream size                              : 4.10 MiB (4%)
Title                                    : DusIcTv
Service kind                             : Complete Main
Default                                  : Yes
Forced                                   : No

Text
ID                                       : 3
Format                                   : UTF-8
Codec ID                                 : S_TEXT/UTF8
Codec ID/Info                            : UTF-8 Plain Text
Duration                                 : 2 min 24 s
Bit rate                                 : 55 b/s
Count of elements                        : 26
Stream size                              : 992 Bytes (0%)
Title                                    : SDH
Language                                 : English
Default                                  : No
Forced                                   : No

:screens:








 

:download2:
01-Achha Lagta Hai [By-DusIcTv].mkv   108.20 MB

https://thefileslocker.com/qpaw9cnzre9w.html

02-Mauka [By-DusIcTv].mkv   257.89 MB

https://thefileslocker.com/x6lnjt01fb8k.html

03-Kaun Si Dor [By-DusIcTv].mkv   158.52 MB

https://thefileslocker.com/gu9h7okqmem3.html

04-Roshanee [By-DusIcTv].mkv   164.48 MB

https://thefileslocker.com/klo8quo4dv7j.html

https://thefileslocker.com/8nj6njmrjuw8.html

0 0 vote
Article Rating
Subscribe
Notify of
guest
0 Comments
Inline Feedbacks
View all comments