Aapko Pehle Bhi Kahin Dekha Hai (2003) Hindi 1080p WebHD AVC DDP 5.1 {Music Video} ESuBS By-DusIcTv

xxxxxxxxxxxxxxxxxxxxxxxxxxxxxxxxxxxxxxxxxxxxxxxxxxxxxxxxxxxxxxx
Aapko Pehle Bhi Kahin Dekha Hai (2003) Hindi 1080p WebHD AVC DDP 5.1 {Music Video} ESuBS By-DusIcTv
xxxxxxxxxxxxxxxxxxxxxxxxxxxxxxxxxxxxxxxxxxxxxxxxxxxxxxxxxxxxxxx

Media info
General
Format : Matroska
Format version : Version 4
File size : 4.91 GB
Overall bit rate mode : Variable
Overall bit rate : 12.1 Mb/s
Encoded date : UTC 2019-08-19 14:29:05
Writing application : mkvmerge v35.0.0 (‘All The Love In The World’) 64-bit
Writing library : libebml v1.3.9 + libmatroska v1.5.2

Video
ID : 1
Format : AVC
Format/Info : Advanced Video Codec
Format profile : [email protected]
Format settings : CABAC / 4 Ref Frames
Format settings, CABAC : Yes
Format settings, Reference frames : 4 frames
Codec ID : V_MPEG4/ISO/AVC
Bit rate mode : Variable
Bit rate : 11.5 Mb/s
Maximum bit rate : 15.0 Mb/s
Width : 1 920 pixels
Height : 816 pixels
Display aspect ratio : 2.35:1
Frame rate mode : Constant
Frame rate : 25.000 FPS
Color space : YUV
Chroma subsampling : 4:2:0
Bit depth : 8 bits
Scan type : Progressive
Bits/(Pixel*Frame) : 0.293
Stream size : 427 MiB (95%)
Default : Yes
Forced : No
Color range : Limited
Color primaries : BT.709
Transfer characteristics : BT.709
Matrix coefficients : BT.709

Audio
ID : 2
Format : E-AC-3
Format/Info : Enhanced AC-3
Commercial name : Dolby Digital Plus
Codec ID : A_EAC3
Bit rate mode : Constant
Bit rate : 640 kb/s
Channel(s) : 6 channels
Channel layout : L R C LFE Ls Rs
Sampling rate : 48.0 kHz
Frame rate : 31.250 FPS (1536 SPF)
Compression mode : Lossy
Stream size : 23.8 MiB (5%)
Language : English
Service kind : Complete Main
Default : Yes
Forced : No

Text
ID : 3
Format : UTF-8
Codec ID : S_TEXT/UTF8
Codec ID/Info : UTF-8 Plain Text
Bit rate : 36 b/s
Count of elements : 32
Stream size : 1.12 KiB (0%)
Default : Yes
Forced : No

Screen Shot

 

G- Drive Download

01-Aapko Pehli Bhi Kahin Dekha Hai [By-DusIcTv].mkv – 451.4 MB

02-Aisi Aankhen Nahi Dekhin [By-DusIcTv].mkv – 485.0 MB

03-Aapki Yaad Aaye To [By-DusIcTv].mkv – 418.6 MB

04-Aisi Aankhen Nahi Dekhin (2nd) [By-DusIcTv].mkv – 97.7 MB

05-Kuch Bhi Na Kaha [By-DusIcTv].mkv – 659.9 MB

06-Dil Gaya Kaam Se [By-DusIcTv].mkv – 583.0 MB

07-Ishq To Jaadoo Hai [By-DusIcTv].mkv – 606.7 MB

08-Baba Ki Rani Hoon [By-DusIcTv].mkv – 529.9 MB

09-Kabhie Khan Khan [By-DusIcTv].mkv – 500.9 MB

10-Sajna Main Haari [By-DusIcTv].mkv – 492.8 MB

11-Barsaat [By-DusIcTv].mkv – 213.0 MB

0 0 vote
Article Rating
Subscribe
Notify of
guest
0 Comments
Inline Feedbacks
View all comments