Aaja Nachle (2007) (MUSIC VIDEOS ALBUM) 1080p WebHD AVC DDP 5.1 By-DusIcTv

Aaja Nachle (2007) (MUSIC VIDEOS ALBUM) 1080p WebHD AVC DDP 5.1 By-DusIcTv

xxxxxxxxxxxxxxxxxxxxxxxxxxxxxxxxxxxxxxxxxxxxxxxxxxxxxxxxxxxxxxxxxxxxxxxxxxxxxxxxxxxxxxxxxxxxxxxxxxx
Aaja Nachle (2007) (MUSIC VIDEOS ALBUM) 1080p WebHD AVC DDP 5.1 By-DusIcTv
xxxxxxxxxxxxxxxxxxxxxxxxxxxxxxxxxxxxxxxxxxxxxxxxxxxxxxxxxxxxxxxxxxxxxxxxxxxxxxxxxxxxxxxxxxxxxxxxxxx

:details:

Format : Matroska
Format version : Version 4
File size : 4.32 GB
Overall bit rate : 14.5 Mb/s

Writing application : mkvmerge v36.0.0 (‘Is That Jazz?’) 32-bit
Writing library : libebml v1.3.9 + libmatroska v1.5.2

Video
ID : 1
Format : AVC
Format/Info : Advanced Video Codec
Format profile : [email protected]
Format settings : CABAC / 4 Ref Frames
Format settings, CABAC : Yes
Format settings, Reference frames : 4 frames
Codec ID : V_MPEG4/ISO/AVC
Bit rate : 13.8 Mb/s
Width : 1 920 pixels
Height : 816 pixels
Display aspect ratio : 2.35:1
Frame rate mode : Constant
Frame rate : 23.976 (24000/1001) FPS
Color space : YUV
Chroma subsampling : 4:2:0
Bit depth : 8 bits
Scan type : Progressive
Bits/(Pixel*Frame) : 0.368
Stream size : 384 MiB (96%)
Default : Yes
Forced : No
Color range : Limited
Color primaries : BT.709
Transfer characteristics : BT.709
Matrix coefficients : BT.709

Audio
ID : 2
Format : E-AC-3
Format/Info : Enhanced AC-3
Commercial name : Dolby Digital Plus
Codec ID : A_EAC3
Bit rate mode : Constant
Bit rate : 640 kb/s
Channel(s) : 6 channels
Channel layout : L R C LFE Ls Rs
Sampling rate : 48.0 kHz
Frame rate : 31.250 FPS (1536 SPF)
Compression mode : Lossy
Delay relative to video : 14 ms
Stream size : 17.8 MiB (4%)
Service kind : Complete Main
Default : Yes
Forced : No

:screens:






:download2:
01-Dance With Me [By-DusIcTv].mkv   402.22 MB

https://thefileslocker.com/sgqt14nmdqm4.html

02-O Re Piya [By-DusIcTv].mkv   675.74 MB

https://thefileslocker.com/9dy9oibhtwcg.html

03-Show Me Your Jalwa [By-DusIcTv].mkv   554.52 MB

https://thefileslocker.com/n4ztit9i4b2a.html

04-Aaja Nachle [By-DusIcTv].mkv   479.81 MB

https://thefileslocker.com/p5whoujk2pwh.html

05-Ishq Hua [By-DusIcTv].mkv   419.47 MB

https://thefileslocker.com/llod7sfemd0t.html

06-Soniye Mil Ja [By-DusIcTv].mkv   557.92 MB

https://thefileslocker.com/iotxcl1vi6f2.html

07-Is Pal Main Hoon [By-DusIcTv].mkv   204.91 MB

https://thefileslocker.com/b3ikjy0284pk.html

08-Koi Patthar Se Na Maare [By-DusIcTv].mkv   890.70 MB

https://thefileslocker.com/9w3ks4774yta.html

09-Aaja Nachle (2nd) [By-DusIcTv].mkv   154.55 MB

https://thefileslocker.com/r31fugypixpi.html

10-Aaja Nachle (End Roll) [By-DusIcTv].mkv   92.40 MB

https://thefileslocker.com/yj3hwmcygse6.html

https://thefileslocker.com/1f0daxvdukz1.html
https://uploader.link/f/jjridq-sobpfxrdiwl4u
https://uptobox.com/pb0bqyds1kz1

0 0 vote
Article Rating
Subscribe
Notify of
guest
1 Comment
Oldest
Newest Most Voted
Inline Feedbacks
View all comments
Thurstan Naidoo
Thurstan Naidoo
1 year ago

Is there a full movie version of this quality ?