Aadukalam (2011) – Tamil – 1080p True HD – AVC – x264 – 7.4GB

Aadukalam movie poster

Complete name : Aadukalam (2011) – Tamil – 1080p True HD – AVC – x264 – 7.4GB
Format : MPEG-4
Format profile : Base Media
Codec ID : isom (isom/iso2/avc1/mp41)
File size : 7.40 GiB
Duration : 2 h 31 min
Overall bit rate mode : Variable
Overall bit rate : 6 991 kb/s
Movie name : Aadukalam – [email protected]
Writing application : Lavf55.49.100
Cover : Yes

Video
ID : 1
Format : AVC
Format/Info : Advanced Video Codec
Format profile : [email protected]
Format settings : CABAC / 3 Ref Frames
Format settings, CABAC : Yes
Format settings, Reference frames : 3 frames
Format settings, GOP : M=1, N=90
Codec ID : avc1
Codec ID/Info : Advanced Video Coding
Duration : 2 h 31 min
Bit rate : 6 725 kb/s
Width : 1 920 pixels
Height : 816 pixels
Display aspect ratio : 2.35:1
Frame rate mode : Variable
Frame rate : 30.000 FPS
Minimum frame rate : 29.412 FPS
Maximum frame rate : 30.303 FPS
Color space : YUV
Chroma subsampling : 4:2:0
Bit depth : 8 bits
Scan type : Progressive
Bits/(Pixel*Frame) : 0.143
Stream size : 7.12 GiB (96%)
Color range : Limited
Color primaries : BT.709
Transfer characteristics : BT.709
Matrix coefficients : BT.709
Codec configuration box : avcC

Audio
ID : 2
Format : AAC LC
Format/Info : Advanced Audio Codec Low Complexity
Codec ID : mp4a-40-2
Duration : 2 h 31 min
Bit rate mode : Variable
Bit rate : 256 kb/s
Maximum bit rate : 259 kb/s
Channel(s) : 2 channels
Channel layout : L R
Sampling rate : 48.0 kHz
Frame rate : 46.875 FPS (1024 SPF)
Compression mode : Lossy
Stream size : 278 MiB (4%)
Default : Yes
Alternate group : 1

892e4b84c1d4e43d2e20ba7ed6aa9a20.gif
285cd9ffdb992a6b86d1b9a1dff5c5c1.md.png2ffe67da4af277dc0cb737d794b70d35.md.pngbb3a639e6ae007a36831151ec5003c43.md.png04d4b5dcda8e99da347a578f2de782c4.md.png88a478fd16a4ad675d6156affe2a4f1d.md.pnge686c9cf6bdcff3636874767cc764284.md.png
1080p [Google Drive+Download] ( 7.5Gb)

http://bit.ly/2wKuGPG

0 0 vote
Article Rating
Subscribe
Notify of
guest
2 Comments
Oldest
Newest Most Voted
Inline Feedbacks
View all comments
Rohit
11 months ago

Bhaiya please fileslocker wali link dal do please

Rohit
11 months ago

Ye wali complicated hai please fileslocker wali link daldo please mujhe bohot dino see ye movie dekhni thi