Aadhavan (2009) (MUSIC VIDEO ALBUM) Tamil 1080p Blu-Ray BD REMUX LPCM 5.1 By-DusIcTv

xxxxxxxxxxxxxxxxxxxxxxxxxxxxxxxxxxxxxxxxxxxxxxxxxxxxxxxxxxxxxxxxxxxxxxxxxxxxxxxxxxxxxxxxxxxxxxxxxxx
Aadhavan (2009) (MUSIC VIDEO ALBUM) Tamil 1080p Blu-Ray BD REMUX LPCM 5.1 By-DusIcTv
xxxxxxxxxxxxxxxxxxxxxxxxxxxxxxxxxxxxxxxxxxxxxxxxxxxxxxxxxxxxxxxxxxxxxxxxxxxxxxxxxxxxxxxxxxxxxxxxxxx

Media info
General
Format : Matroska
Format version : Version 2
File size : 7.21 GB
Overall bit rate mode : Variable
Overall bit rate : 29.0 Mb/s
Encoded date : UTC 2016-10-07 13:00:33
Writing application : mkvmerge v3.3.0 (‘Language’) built on Mar 24 2010 14:59:24
Writing library : libebml v0.8.0 + libmatroska v0.9.0

Video
ID : 1
Format : AVC
Format/Info : Advanced Video Codec
Format profile : [email protected]
Format settings : CABAC / 3 Ref Frames
Format settings, CABAC : Yes
Format settings, Reference frames : 3 frames
Codec ID : V_MPEG4/ISO/AVC
Bit rate mode : Variable
Bit rate : 23.8 Mb/s
Maximum bit rate : 30.0 Mb/s
Width : 1 920 pixels
Height : 1 080 pixels
Display aspect ratio : 16:9
Frame rate mode : Constant
Frame rate : 24.000 FPS
Standard : NTSC
Color space : YUV
Chroma subsampling : 4:2:0
Bit depth : 8 bits
Scan type : Progressive
Bits/(Pixel*Frame) : 0.478
Stream size : 403 MiB (82%)
Title : MPEG-4 AVC – 24999 Kbps – 24 fps
Language : Tamil
Default : Yes
Forced : No
Color range : Limited
Color primaries : BT.709
Transfer characteristics : BT.709
Matrix coefficients : BT.709

Audio
ID : 2
Format : PCM
Format settings : Little / Signed
Codec ID : A_PCM/INT/LIT
Duration : 2 min 22 s
Bit rate mode : Constant
Bit rate : 4 608 kb/s
Channel(s) : 6 channels
Sampling rate : 48.0 kHz
Bit depth : 16 bits
Stream size : 78.0 MiB (16%)
Title : LPCM 5.1 @ 4608 Kbps – Original
Language : Tamil
Default : Yes
Forced : No

Text
ID : 3
Format : VobSub
Muxing mode : zlib
Codec ID : S_VOBSUB
Codec ID/Info : Picture based subtitle format used on DVDs
Language : English
Default : No
Forced : No

G- Drive Download 

01-Dammaku Dammaku [By-DusIcTv].mkv

02-Theme Song [By-DusIcTv].mkv

03-Dekho Dekho [By-DusIcTv].mkv

04-Maasi Maasi [By-DusIcTv].mkv

05-Yeno Yeno Panithuli [By-DusIcTv].mkv

06-Vaarayo Vaarayo [By-DusIcTv].mkv

07-Hasili Fisili [By-DusIcTv].mkv

The File locker Download 

01-Dammaku Dammaku [By-DusIcTv].mkv – 1.1 GB

02-Theme Song [By-DusIcTv].mkv – 490.7 MB

03-Dekho Dekho [By-DusIcTv].mkv – 1.0 GB

04-Maasi Maasi [By-DusIcTv].mkv – 1.2 GB

05-Yeno Yeno Panithuli [By-DusIcTv].mkv – 1.0 GB

06-Vaarayo Vaarayo [By-DusIcTv].mkv – 1.3 GB

07-Hasili Fisili [By-DusIcTv].mkv – 1.0 GB

0 0 vote
Article Rating
Subscribe
Notify of
guest
1 Comment
Oldest
Newest Most Voted
Inline Feedbacks
View all comments
Raja rajgonda
Raja rajgonda
1 year ago

Please upload size zero tamil