A-X-L (2018) HD BluRay x264 1080p | 720p {Dual Audio} [Hindi DD 2.0 + English 2.0]

Format : Matroska
Format version : Version 4
File size : 1.07 GiB
Duration : 1 h 38 min
Overall bit rate : 1 554 kb/s
Movie name : [DesiShare.org] A.X.L (2018) 720p BluRay x264 AAC ESub Dual Audio [Hindi DD 2.0CH + English] 1.05GB
Encoded date : UTC 2019-07-31 12:06:34
Writing application : mkvmerge v29.0.0 (‘Like It Or Not’) 32-bit
Writing library : libebml v1.3.6 + libmatroska v1.4.9

Video
ID : 1
Format : AVC
Format/Info : Advanced Video Codec
Format profile : [email protected]
Format settings : CABAC / 8 Ref Frames
Format settings, CABAC : Yes
Format settings, ReFrames : 8 frames
Codec ID : V_MPEG4/ISO/AVC
Duration : 1 h 38 min
Bit rate : 1 109 kb/s
Width : 1 280 pixels
Height : 534 pixels
Display aspect ratio : 2.40:1
Frame rate mode : Constant
Frame rate : 23.976 (24000/1001) FPS
Color space : YUV
Chroma subsampling : 4:2:0
Bit depth : 8 bits
Scan type : Progressive
Bits/(Pixel*Frame) : 0.068
Stream size : 778 MiB (71%)
Title : [DesiShare.org]

Default : Yes
Forced : Yes

Audio #1
ID : 2
Format : AC-3
Format/Info : Audio Coding 3
Commercial name : Dolby Digital
Codec ID : A_AC3
Duration : 1 h 38 min
Bit rate mode : Constant
Bit rate : 384 kb/s
Channel(s) : 2 channels
Channel layout : L R
Sampling rate : 48.0 kHz
Frame rate : 31.250 FPS (1536 SPF)
Bit depth : 16 bits
Compression mode : Lossy
Stream size : 271 MiB (25%)
Title : [DesiShare.org]
Language : Hindi
Service kind : Complete Main
Default : Yes
Forced : Yes

Audio #2
ID : 3
Format : AAC LC
Format/Info : Advanced Audio Codec Low Complexity
Codec ID : A_AAC-2
Duration : 1 h 38 min
Bit rate : 64.6 kb/s
Channel(s) : 2 channels
Channel layout : L R
Sampling rate : 48.0 kHz
Frame rate : 46.875 FPS (1024 SPF)
Compression mode : Lossy
Stream size : 45.6 MiB (4%)
Title : [DesiShare.org]
Language : English
Default : No
Forced : Yes

Text
ID : 4
Format : UTF-8
Codec ID : S_TEXT/UTF8
Codec ID/Info : UTF-8 Plain Text
Duration : 1 h 28 min
Bit rate : 47 b/s
Count of elements : 998
Stream size : 31.0 KiB (0%)
Title : [DesiShare.org]
Language : English
Default : Yes
Forced : Yes

Download 1080P { 4.5 GB}  | The File Locker | Mega  

720P 

PLAY ONLINE

The File Locker Download {1.07 GB}

Quick Download {1.07 GB} 

{ Direct } Download  Link {1.07 GB}

{ G-Drive } Download  Link {1.07 GB}

{ Mega – Drive } Download  Link {1.07 GB} 

{Media Fire } Download  Link {1.07 GB}

0 0 vote
Article Rating
Subscribe
Notify of
guest
0 Comments
Inline Feedbacks
View all comments