A Aa (2016) (MUSIC VIDEOS ALBUM) Telugu 1080p WebHD AVC AAC By-DusIcTv

General
Format : Matroska
Format version : Version 4
File size : 1.18 GB
Overall bit rate mode : Variable
Overall bit rate : 10.2 Mb/s
Encoded date : UTC 2019-12-15 21:35:40
Writing application : mkvmerge v41.0.0 (‘Smarra’) 64-bit
Writing library : libebml v1.3.9 + libmatroska v1.5.2

Video
ID : 1
Format : AVC
Format/Info : Advanced Video Codec
Format profile : [email protected]
Format settings : CABAC / 1 Ref Frames
Format settings, CABAC : Yes
Format settings, Reference frames : 1 frame
Format settings, GOP : M=3, N=24
Muxing mode : Container [email protected]
Codec ID : V_MPEG4/ISO/AVC
Bit rate mode : Variable
Bit rate : 10.1 Mb/s
Maximum bit rate : 15.0 Mb/s
Width : 1 920 pixels
Height : 806 pixels
Display aspect ratio : 2.40:1
Frame rate mode : Constant
Frame rate : 24.000 FPS
Color space : YUV
Chroma subsampling : 4:2:0
Bit depth : 8 bits
Scan type : Progressive
Bits/(Pixel*Frame) : 0.272
Stream size : 243 MiB (99%)
Title : By-DusIcTv
Language : Telugu
Default : No
Forced : No

Audio
ID : 2
Format : AAC LC
Format/Info : Advanced Audio Codec Low Complexity
Codec ID : A_AAC-2
Bit rate : 128 kb/s
Channel(s) : 2 channels
Channel layout : L R
Sampling rate : 44.1 kHz
Frame rate : 43.066 FPS (1024 SPF)
Compression mode : Lossy
Stream size : 3.08 MiB (1%)
Title : By-DusIcTv
Language : Telugu
Default : No
Forced : No

The File Locker Download 

01-Yaa Yaa [By-DusIcTv].mkv – 298.9 MB

02-Anasuya Kosam [By-DusIcTv].mkv – 245.9 MB

03-Mummy Returns [By-DusIcTv].mkv – 189.6 MB

04-Rang De [By-DusIcTv].mkv – 260.3 MB

06-Yellipoke Shyamala [By-DusIcTv].mkv – 215.4 MB

G- Drive Download 

01-Yaa Yaa [By-DusIcTv].mkv

02-Anasuya Kosam [By-DusIcTv].mkv

03-Mummy Returns [By-DusIcTv].mkv

04-Rang De [By-DusIcTv].mkv

06-Yellipoke Shyamala [By-DusIcTv].mkv

0 0 vote
Article Rating
Subscribe
Notify of
guest
1 Comment
Oldest
Newest Most Voted
Inline Feedbacks
View all comments
Dishalover
Dishalover
1 year ago

Admin plz upload loveratri movie cut music video 1080p all video from AMZN PRIME VIDEO Plz upload admin…..