3 Idiots (2009) Repack 1080p BluRay REMUX AVC DTS-HDMA 5.1 – KRaLiMaRKo | G- Drive | 33 GB |

General

Format : Matroska
Format version : Version 4
File size : 33.5 GiB
Duration : 2 h 51 min
Overall bit rate mode : Variable
Overall bit rate : 28.0 Mb/s
Movie name : 3 Idiots 2009 Repack 1080p Blu-ray Remux AVC DTS-HD MA 5.1 – KRaLiMaRKo
Encoded date : UTC 2019-11-08 13:48:54
Writing application : mkvmerge v38.0.0 (‘The Silent Type’) 64-bit
Writing library : libebml v1.3.9 + libmatroska v1.5.2

Video
ID : 1
Format : AVC
Format/Info : Advanced Video Codec
Format profile : [email protected]
Format settings : CABAC / 4 Ref Frames
Format settings, CABAC : Yes
Format settings, ReFrames : 4 frames
Format settings, GOP : M=3, N=12
Codec ID : V_MPEG4/ISO/AVC
Duration : 2 h 51 min
Bit rate mode : Variable
Bit rate : 25.5 Mb/s
Maximum bit rate : 30.0 Mb/s
Width : 1 920 pixels
Height : 1 080 pixels
Display aspect ratio : 16:9
Frame rate mode : Constant
Frame rate : 24.000 FPS
Standard : NTSC
Color space : YUV
Chroma subsampling : 4:2:0
Bit depth : 8 bits
Scan type : Progressive
Bits/(Pixel*Frame) : 0.512
Stream size : 30.5 GiB (91%)
Language : Hindi
Default : Yes
Forced : No
Color range : Limited
Color primaries : BT.709
Transfer characteristics : BT.709
Matrix coefficients : BT.709

Audio
ID : 2
Format : DTS XLL
Format/Info : Digital Theater Systems
Commercial name : DTS-HD Master Audio
Codec ID : A_DTS
Duration : 2 h 51 min
Bit rate mode : Variable
Bit rate : 2 285 kb/s
Channel(s) : 6 channels
Channel layout : C L R Ls Rs LFE
Sampling rate : 48.0 kHz
Frame rate : 93.750 FPS (512 SPF)
Bit depth : 16 bits
Compression mode : Lossless
Stream size : 2.73 GiB (8%)
Language : Hindi
Default : Yes
Forced : No

Text #1
ID : 3
Format : PGS
Codec ID : S_HDMV/PGS
Codec ID/Info : Picture based subtitle format used on BDs/HD-DVDs
Duration : 2 h 46 min
Bit rate : 33.9 kb/s
Count of elements : 4266
Stream size : 40.5 MiB (0%)
Language : English
Default : No
Forced : No

Text #2
ID : 4
Format : PGS
Codec ID : S_HDMV/PGS
Codec ID/Info : Picture based subtitle format used on BDs/HD-DVDs
Duration : 2 h 46 min
Bit rate : 21.3 kb/s
Count of elements : 4274
Stream size : 25.4 MiB (0%)
Language : Arabic
Default : No
Forced : No

Text #3
ID : 5
Format : PGS
Codec ID : S_HDMV/PGS
Codec ID/Info : Picture based subtitle format used on BDs/HD-DVDs
Duration : 2 h 48 min
Bit rate : 32.5 kb/s
Count of elements : 4278
Stream size : 39.1 MiB (0%)
Language : Dutch
Default : No
Forced : No

Text #4
ID : 6
Format : PGS
Codec ID : S_HDMV/PGS
Codec ID/Info : Picture based subtitle format used on BDs/HD-DVDs
Duration : 2 h 46 min
Bit rate : 33.8 kb/s
Count of elements : 4453
Stream size : 40.4 MiB (0%)
Language : French
Default : No
Forced : No

Text #5
ID : 7
Format : PGS
Codec ID : S_HDMV/PGS
Codec ID/Info : Picture based subtitle format used on BDs/HD-DVDs
Duration : 2 h 46 min
Bit rate : 39.3 kb/s
Count of elements : 4511
Stream size : 47.0 MiB (0%)
Language : Malay
Default : No
Forced : No

Text #6
ID : 8
Format : PGS
Codec ID : S_HDMV/PGS
Codec ID/Info : Picture based subtitle format used on BDs/HD-DVDs
Duration : 2 h 46 min
Bit rate : 33.2 kb/s
Count of elements : 4401
Stream size : 39.7 MiB (0%)
Title : Brazilian
Language : Portuguese
Default : No
Forced : No

Text #7
ID : 9
Format : PGS
Codec ID : S_HDMV/PGS
Codec ID/Info : Picture based subtitle format used on BDs/HD-DVDs
Duration : 2 h 46 min
Bit rate : 33.3 kb/s
Count of elements : 4395
Stream size : 39.8 MiB (0%)
Title : Latin American
Language : Spanish
Default : No
Forced : No

Menu
00:00:00.000 : en:Farhan Fakes Heart Attack
00:01:07.375 : en:Behti Hawa Sa Tha Wo…
00:08:23.042 : en:Rancho Arrives
00:13:24.417 : en:Director Addresses Students
00:18:07.667 : en:Definition of Machine
00:23:13.000 : en:Give Me Some Sunshine…
00:28:49.250 : en:”Aal izz Well” Philosophy
00:30:02.208 : en:Aal Izz Well…
00:31:29.042 : en:Rancho Confronts Director
00:37:09.250 : en:Raju’s Black and White House
00:44:34.000 : en:Chatur’s Speech
00:59:55.333 : en:Pia Breaks Up With Suhas
01:06:27.500 : en:Zoobi Doobi…
01:14:12.083 : en:Results Are Out
01:20:47.125 : en:Reaching Shimla
01:25:03.417 : en:Rancho’s Mystery
01:28:24.833 : en:Director Humilates Farhan and Raju
01:36:50.833 : en:Drunk Rancho Lands At Director’s House
01:42:58.417 : en:Induction Motor
01:47:41.042 : en:Jaane Rujne Denge Nahin…
01:52:03.000 : en:Farhan and Raju Dare to Speak
01:58:04.708 : en:Drunk Pia Comes to Rancho’s Room
02:09:01.542 : en:Pia’s Wedding
02:11:40.667 : en:Rancho Steals Question Paper
02:18:18.625 : en:Child Delivery
02:24:14.333 : en:Reaching Ladakh
02:37:46.042 : en:End Credits

G- Drive Full Movie Download 

https://drive.klop.me/file/af162fc343

https://sharer.pw/file/VDiY-qp1Dnp

G- Drive Parts 4.5 GB

3 Idiots (2009) Repack 1080p BluRay REMUX AVC DTS-HDMA 5.1 – KRaLiMaRKo.z01

3 Idiots (2009) Repack 1080p BluRay REMUX AVC DTS-HDMA 5.1 – KRaLiMaRKo.z02

3 Idiots (2009) Repack 1080p BluRay REMUX AVC DTS-HDMA 5.1 – KRaLiMaRKo.z03

3 Idiots (2009) Repack 1080p BluRay REMUX AVC DTS-HDMA 5.1 – KRaLiMaRKo.z04

3 Idiots (2009) Repack 1080p BluRay REMUX AVC DTS-HDMA 5.1 – KRaLiMaRKo.z05

3 Idiots (2009) Repack 1080p BluRay REMUX AVC DTS-HDMA 5.1 – KRaLiMaRKo.z06

3 Idiots (2009) Repack 1080p BluRay REMUX AVC DTS-HDMA 5.1 – KRaLiMaRKo.z07

3 Idiots (2009) Repack 1080p BluRay REMUX AVC DTS-HDMA 5.1 – KRaLiMaRKo.z08

3 Idiots (2009) Repack 1080p BluRay REMUX AVC DTS-HDMA 5.1 – KRaLiMaRKo.zip

The File Locker Download Parts 4.5 GB 

3 Idiots (2009) Repack 1080p BluRay REMUX AVC DTS-HDMA 5.1 – KRaLiMaRKo.z01 – 4.0 GB

3 Idiots (2009) Repack 1080p BluRay REMUX AVC DTS-HDMA 5.1 – KRaLiMaRKo.zip – 1.2 GB

3 Idiots (2009) Repack 1080p BluRay REMUX AVC DTS-HDMA 5.1 – KRaLiMaRKo.z08 – 4.0 GB

3 Idiots (2009) Repack 1080p BluRay REMUX AVC DTS-HDMA 5.1 – KRaLiMaRKo.z07 – 4.0 GB

3 Idiots (2009) Repack 1080p BluRay REMUX AVC DTS-HDMA 5.1 – KRaLiMaRKo.z06 – 4.0 GB

3 Idiots (2009) Repack 1080p BluRay REMUX AVC DTS-HDMA 5.1 – KRaLiMaRKo.z05 – 4.0 GB

3 Idiots (2009) Repack 1080p BluRay REMUX AVC DTS-HDMA 5.1 – KRaLiMaRKo.z04 – 4.0 GB

3 Idiots (2009) Repack 1080p BluRay REMUX AVC DTS-HDMA 5.1 – KRaLiMaRKo.z03 – 4.0 GB

3 Idiots (2009) Repack 1080p BluRay REMUX AVC DTS-HDMA 5.1 – KRaLiMaRKo.z02 – 4.0 GB

0 0 vote
Article Rating
Subscribe
Notify of
guest
6 Comments
Oldest
Newest Most Voted
Inline Feedbacks
View all comments
Sandeep kumar
Sandeep kumar
1 year ago

Bhai , please upload every movie in 3 to 5 gb range so that Indian can able to download it . We have limited internet.

Pankaj singh Bisht
Pankaj singh Bisht
1 year ago

Thanks bro♥️

anurag
anurag
1 year ago

plz upload golmaal 3 not more than 8 to 9 gb size

Sandeep kumar
Sandeep kumar
1 year ago

Please upload 1920 (2008) in 1080p in 3 gb range

Akshat
Akshat
1 year ago

Please upload Avengers, Avengers Age of Ultron. Avengers Infinity War 1080p Blu Ray Remux English Hindi as they have released in Blu Ray disk. Please Please ? ?????????????.