1942 – A Love Story (1994) Hindi 1080p WebHD AVC {Music Video} ESuBS By-DusIcTv

1942 – A Love Story (1994) Hindi 1080p WebHD AVC {Music Video} ESuBS By-DusIcTv

:details:

Format                                   : Matroska
Format version                           : Version 4
File size                                : 936 MB
Overall bit rate                         : 5 656 kb/s
Writing application  : mkvmerge v34.0.0 (‘Sight and Seen’) 64-bit
Writing library : libebml v1.3.7 + libmatroska v1.5.0

Video
ID                                       : 1
Format                                   : AVC
Format/Info                              : Advanced Video Codec
Format profile                           : [email protected]
Format settings                          : CABAC / 3 Ref Frames
Format settings, CABAC                   : Yes
Format settings, Reference frames        : 3 frames
Codec ID                                 : V_MPEG4/ISO/AVC
Bit rate                                 : 5 525 kb/s
Width                                    : 1 920 pixels
Height                                   : 812 pixels
Display aspect ratio                     : 2.35:1
Frame rate mode                          : Constant
Frame rate                               : 24.000 FPS
Color space                              : YUV
Chroma subsampling                       : 4:2:0
Bit depth                                : 8 bits
Scan type                                : Progressive
Bits/(Pixel*Frame)                       : 0.148
Stream size                              : 176 MiB (98%)
Title                                    : DusIcTv
Language                                 : Hindi
Default                                  : Yes
Forced                                   : No
Color range                              : Limited
Color primaries                          : BT.709
Transfer characteristics                 : BT.709
Matrix coefficients                      : BT.709

Audio
ID                                       : 2
Format                                   : AAC LC
Format/Info                              : Advanced Audio Codec
Codec ID                                 : A_AAC-2
Bit rate                                 : 128 kb/s
Channel(s)                               : 2 channels
Channel layout                           : L R
Sampling rate                            : 44.1 kHz
Frame rate                               : 43.066 FPS (1024 SPF)
Compression mode                         : Lossy
Delay relative to video                  : 10 ms
Stream size                              : 4.08 MiB (2%)
Title                                    : DusIcTv
Language                                 : Hindi
Default                                  : Yes
Forced                                   : No

Text
ID                                       : 3
Format                                   : UTF-8
Codec ID                                 : S_TEXT/UTF8
Codec ID/Info                            : UTF-8 Plain Text
Bit rate                                 : 32 b/s
Count of elements                        : 22
Stream size                              : 954 Bytes (0%)
Language                                 : English
Default                                  : Yes
Forced                                   : No

:screens:






:download2:
01-Ek Ladki Ko Dekha To [By-DusIcTv].mkv   180.27 MB

https://thefileslocker.com/1001p92cqn7p.html

02-Rooth Na Jaana [By-DusIcTv].mkv   110.50 MB

https://thefileslocker.com/mgx0h0pkkwaq.html

03-Pyar Hua Chupke Se [By-DusIcTv].mkv   139.92 MB

https://thefileslocker.com/brvpt2xayb2z.html

04-Rim Jhim Rim Jhim [By-DusIcTv].mkv   140.84 MB

https://thefileslocker.com/wmx2y0z47aou.html

05-Kuchh Na Kaho [By-DusIcTv].mkv   144.25 MB

https://thefileslocker.com/adn7ayf4b397.html

06-Yeh Safar [By-DusIcTv].mkv   109.89 MB

https://thefileslocker.com/g0uavoxjwial.html

07-Kuchh Na Kaho (2nd) [By-DusIcTv].mkv   42.44 MB

https://thefileslocker.com/nb6yyfs0o1n1.html

08-Kuchh Na Kaho (Sad) [By-DusIcTv].mkv   67.90 MB

https://thefileslocker.com/x6tucgymb2x0.html

0 0 vote
Article Rating
Subscribe
Notify of
guest
1 Comment
Oldest
Newest Most Voted
Inline Feedbacks
View all comments
Rajeev Gupta
Rajeev Gupta
9 days ago

02-Rooth Na Jaana [By-DusIcTv].mkv   110.50 MB
03-Pyar Hua Chupke Se [By-DusIcTv].mkv   139.92 MB
06-Yeh Safar [By-DusIcTv].mkv   109.89 MB
07-Kuchh Na Kaho (2nd) [By-DusIcTv].mkv   42.44 MB
08-Kuchh Na Kaho (Sad) [By-DusIcTv].mkv   67.90 MB

Link are not working

Last edited 9 days ago by rajeev1100