1917 2019 1080p Bluray TrueHD Atmos 7.1 HEVC-DDR | G- Drive | 8.70 GB |

       

Format                                  : Matroska
Format version                          : Version 4
File size                                : 8.70 GiB
Duration                                : 1 h 58 min
Overall bit rate mode                    : Variable
Overall bit rate                        : 10.5 Mb/s

Video
ID                                      : 1
Format                                  : HEVC
Format/Info                              : High Efficiency Video Coding
Format profile                          : Main [email protected]@High
Codec ID                                : V_MPEGH/ISO/HEVC
Duration                                : 1 h 58 min
Bit rate                                : 5 938 kb/s
Width                                    : 1 920 pixels
Height                                  : 800 pixels
Display aspect ratio                    : 2.40:1
Frame rate mode                          : Constant
Frame rate                              : 23.976 (24000/1001) FPS
Color space                              : YUV
Chroma subsampling                      : 4:2:0
Bit depth                                : 10 bits
Bits/(Pixel*Frame)                      : 0.161
Stream size                              : 4.93 GiB (57%)
Language                                : English
Default                                  : Yes
Forced                                  : No
Color range                              : Limited
Color primaries                          : BT.709
Transfer characteristics                : BT.709
Matrix coefficients                      : BT.709

Audio #1
ID                                      : 2
Format                                  : MLP FBA 16-ch
Format/Info                              : Meridian Lossless Packing FBA with 16-channel presentation
Commercial name                          : Dolby TrueHD with Dolby Atmos
Codec ID                                : A_TRUEHD
Duration                                : 1 h 58 min
Bit rate mode                            : Variable
Bit rate                                : 3 810 kb/s
Maximum bit rate                        : 7 158 kb/s
Channel(s)                              : 8 channels
Channel layout                          : L R C LFE Ls Rs Lb Rb
Sampling rate                            : 48.0 kHz
Frame rate                              : 1 200.000 FPS (40 SPF)
Compression mode                        : Lossless
Stream size                              : 3.17 GiB (36%)
Language                                : English
Default                                  : No
Forced                                  : No
Number of dynamic objects                : 11
Bed channel count                        : 1 channel
Bed channel configuration                : LFE

Audio #2
ID                                      : 3
Format                                  : AC-3
Format/Info                              : Audio Coding 3
Commercial name                          : Dolby Digital
Codec ID                                : A_AC3
Duration                                : 1 h 58 min
Bit rate mode                            : Constant
Bit rate                                : 640 kb/s
Channel(s)                              : 6 channels
Channel layout                          : L R C LFE Ls Rs
Sampling rate                            : 48.0 kHz
Frame rate                              : 31.250 FPS (1536 SPF)
Bit depth                                : 16 bits
Compression mode                        : Lossy
Delay relative to video                  : 78 ms
Stream size                              : 545 MiB (6%)
Title                                    : Surround
Language                                : English
Service kind                            : Complete Main
Default                                  : Yes
Forced                                  : No

Text
ID                                      : 4
Format                                  : PGS
Muxing mode                              : zlib
Codec ID                                : S_HDMV/PGS
Codec ID/Info                            : Picture based subtitle format used on BDs/HD-DVDs
Duration                                : 1 h 45 min
Bit rate                                : 28.0 kb/s
Count of elements                        : 2202
Stream size                              : 21.2 MiB (0%)
Language                                : English

[email protected]

https://sharer.pw/file/d6Vld-P5fJt

https://drive.klop.me/file/71f0996cd4

https://thefileslocker.com/sp5v12yi4se5.html

0 0 vote
Article Rating
Subscribe
Notify of
guest
0 Comments
Inline Feedbacks
View all comments