Bad.Boys.for.Life.2020.2160p.10bit.HDR.BluRay.8CH.x265.HEVC-PSA 4.4Gb

encrypted-tbn2.gstatic.com/images?q=tbn:ANd9GcR...

Format : Matroska
Format version : Version 4
File size : 4.19 GiB
Duration : 2 h 3 min
Overall bit rate : 4 839 kb/s
Movie name : PSArips.com | Bad.Boys.for.Life.2020.2160p.10bit.HDR.BluRay.8CH.x265.HEVC-PSA
Encoded date : UTC 2020-05-02 06:30:03
Writing application : mkvmerge v15.0.0 (‘Duel with the Devil’) 64-bit
Writing library : libebml v1.3.5 + libmatroska v1.4.7
Cover : Yes
Attachments : small_cover.jpg / small_cover_land.jpg / cover.jpg / cover_land.jpg
Video
ID : 1
Format : HEVC
Format/Info : High Efficiency Video Coding
Format profile : Main [email protected]@Main
HDR format : SMPTE ST 2086, HDR10 compatible
Codec ID : V_MPEGH/ISO/HEVC
Duration : 2 h 3 min
Bit rate : 4 142 kb/s
Width : 3 840 pixels
Height : 1 616 pixels
Display aspect ratio : 2.40:1
Frame rate mode : Constant
Frame rate : 23.976 (24000/1001) FPS
Color space : YUV
Chroma subsampling : 4:2:0
Bit depth : 10 bits
Bits/(Pixel*Frame) : 0.028
Stream size : 3.59 GiB (86%)
Default : Yes
Forced : No
Color range : Limited
Color primaries : BT.2020
Transfer characteristics : PQ
Matrix coefficients : BT.2020 non-constant
Mastering display color primaries : Display P3
Mastering display luminance : min: 0.0050 cd/m2, max: 4000 cd/m2
Maximum Content Light Level : 4004 cd/m2
Maximum Frame-Average Light Level : 695 cd/m2
Audio #1
ID : 2
Format : AAC LC SBR
Format/Info : Advanced Audio Codec Low Complexity with Spectral Band Replication
Commercial name : HE-AAC
Format settings : Explicit
Codec ID : A_AAC-2
Duration : 2 h 3 min
Bit rate : 309 kb/s
Channel(s) : 7 channels
Channel(s)_Original : 8 channels
ChannelLayout_Original : C L R Ls Rs Lw Rw LFE
Sampling rate : 48.0 kHz
Frame rate : 23.438 FPS (2048 SPF)
Compression mode : Lossy
Delay relative to video : 31 ms
Stream size : 274 MiB (6%)
Language : English
Default : Yes
Forced : No
Audio #2
ID : 5
Format : AAC LC
Format/Info : Advanced Audio Codec Low Complexity
Codec ID : A_AAC-2
Duration : 2 h 3 min
Bit rate : 384 kb/s
Channel(s) : 6 channels
Channel layout : C L R Ls Rs LFE
Sampling rate : 48.0 kHz
Frame rate : 46.875 FPS (1024 SPF)
Compression mode : Lossy
Stream size : 341 MiB (8%)
Language : Hindi
Default : No
Forced : No
Text #1
ID : 3
Format : UTF-8
Codec ID : S_TEXT/UTF8
Codec ID/Info : UTF-8 Plain Text
Duration : 1 h 57 min
Bit rate : 66 b/s
Count of elements : 1854
Stream size : 56.8 KiB (0%)
Title : ENG
Language : English
Default : Yes
Forced : No
Text #2
ID : 4
Format : UTF-8
Codec ID : S_TEXT/UTF8
Codec ID/Info : UTF-8 Plain Text
Duration : 2 h 1 min
Bit rate : 73 b/s
Count of elements : 2284
Stream size : 65.4 KiB (0%)
Title : SDH
Language : English
Default : No
Forced : No
Menu #1
00:00:00.000 : en:Chapter 01
00:07:33.202 : en:Chapter 02
00:14:56.645 : en:Chapter 03
00:23:43.255 : en:Chapter 04
00:31:05.613 : en:Chapter 05
00:38:43.070 : en:Chapter 06
00:45:26.056 : en:Chapter 07
00:53:27.204 : en:Chapter 08
01:00:21.993 : en:Chapter 09
01:07:29.253 : en:Chapter 10
01:12:55.120 : en:Chapter 11
01:22:12.344 : en:Chapter 12
01:29:49.092 : en:Chapter 13
01:36:47.802 : en:Chapter 14
01:42:08.580 : en:Chapter 15
01:53:56.120 : en:Chapter 16
Menu #2
00:00:00.000 : en:Chapter 01
00:07:33.203 : en:Chapter 02
00:14:56.646 : en:Chapter 03
00:23:43.255 : en:Chapter 04
00:31:05.614 : en:Chapter 05
00:38:43.071 : en:Chapter 06
00:45:26.349 : en:Chapter 07
00:53:27.329 : en:Chapter 08
01:00:22.035 : en:Chapter 09
01:07:29.254 : en:Chapter 10
01:12:55.162 : en:Chapter 11
01:22:12.344 : en:Chapter 12
01:29:49.092 : en:Chapter 13
01:36:47.802 : en:Chapter 14
01:42:08.581 : en:Chapter 15
01:53:55.912 : en:Chapter 16
01:58:00.699 : en:Chapter 17


vlcsnap 2020 05 01 20h04m37s720vlcsnap 2020 05 01 20h04m59s211vlcsnap 2020 05 01 20h05m07s523vlcsnap 2020 05 01 20h05m17s313vlcsnap 2020 05 01 20h05m22s331vlcsnap 2020 05 01 20h05m29s149

Gdrive Single link+Download Link
https://bit.ly/3aYq0UO
0 0 vote
Article Rating
Subscribe
Notify of
guest
0 Comments
Inline Feedbacks
View all comments