12 Years A Slave (2013) 1080p 10bit BluRay x265 HEVC Dual Audio [Hindi DD2.0 English DD5.1] [3.09 GB] | G-Drive

kb3-X943-WMIJYVg4-SOAy-K0pm-WL5-D

12 Years a Slave (2013)

Director: Steve McQueen
Stars: Chiwetel Ejiofor, Dwight Henry, Dickie Gravois, Bryan Batt

Runtime: 134 min (taken from IMDb)
Genre: Biography, Drama, History

Country: USA, UK
Released: 08 Nov 2013

Rating: 8.1 (may differ)
Votes: 600,537 (may differ)

Release Date: 08 Nov 2013 (taken from IMDb)
Viewer Rating (TV/MPAA): R (taken from IMDb)

Summary: In the antebellum United States, Solomon Northup, a free black man from upstate New York, is abducted and sold into slavery.

Links: IMDb tt2024544

MEDIA INFO

General
Unique ID                                : 17311752914337117683491444142247435678 (0xD061F51331009FEA6917A2D8D86DD9E)
Complete name                            : 12 Years A Slave (2013) 1080p 10bit Bluray Hindi DD2.0 English DD5.1 x265 HEVC.mkv
Format                                   : Matroska
Format version                           : Version 4 / Version 2
File size                                : 3.09 GiB
Duration                                 : 2 h 14 min
Overall bit rate                         : 3 300 kb/s
Movie name                               : 12 Years A Slave (2013) 1080p 10bit Bluray Hindi DD2.0 English DD5.1 x265 HEVC
Encoded date                             : UTC 2019-09-29 10:41:16
Writing application                      : mkvmerge v37.0.0 ('Leave It') 64-bit
Writing library                          : libebml v1.3.9 + libmatroska v1.5.2

Video
ID                                       : 1
Format                                   : HEVC
Format/Info                              : High Efficiency Video Coding
Format profile                           : Main [email protected]@Main
Codec ID                                 : V_MPEGH/ISO/HEVC
Duration                                 : 2 h 14 min
Bit rate                                 : 2 737 kb/s
Width                                    : 1 920 pixels
Height                                   : 800 pixels
Display aspect ratio                     : 2.40:1
Frame rate mode                          : Constant
Frame rate                               : 23.976 (24000/1001) FPS
Color space                              : YUV
Chroma subsampling                       : 4:2:0
Bit depth                                : 10 bits
Bits/(Pixel*Frame)                       : 0.074
Stream size                              : 2.56 GiB (83%)
Title                                    : 
Writing library                          : x265 2.3+22-db5e22b856f5:[Windows][GCC 6.3.0][64 bit] 10bit
Default                                  : Yes
Forced                                   : No

Audio #1
ID                                       : 2
Format                                   : AC-3
Format/Info                              : Audio Coding 3
Codec ID                                 : A_AC3
Duration                                 : 2 h 14 min
Bit rate mode                            : Constant
Bit rate                                 : 224 kb/s
Channel(s)                               : 2 channels
Channel positions                        : Front: L R
Sampling rate                            : 48.0 kHz
Frame rate                               : 31.250 FPS (1536 SPF)
Bit depth                                : 16 bits
Compression mode                         : Lossy
Stream size                              : 215 MiB (7%)
Title                                    : 
Language                                 : Hindi
Service kind                             : Complete Main
Default                                  : Yes
Forced                                   : Yes

Audio #2
ID                                       : 3
Format                                   : AAC
Format/Info                              : Advanced Audio Codec
Format profile                           : LC
Codec ID                                 : A_AAC-2
Duration                                 : 2 h 14 min
Bit rate                                 : 332 kb/s
Channel(s)                               : 6 channels
Channel positions                        : Front: L C R, Side: L R, LFE
Sampling rate                            : 48.0 kHz
Frame rate                               : 46.875 FPS (1024 SPF)
Compression mode                         : Lossy
Delay relative to video                  : 20 ms
Stream size                              : 318 MiB (10%)
Title                                    : 
Language                                 : English
Default                                  : No
Forced                                   : No

Text
ID                                       : 4
Format                                   : VobSub
Muxing mode                              : zlib
Codec ID                                 : S_VOBSUB
Codec ID/Info                            : Picture based subtitle format used on DVDs
Duration                                 : 2 h 12 min
Bit rate                                 : 8 701 b/s
Count of elements                        : 1666
Stream size                              : 8.25 MiB (0%)
Title                                    : 
Language                                 : English
Default                                  : No
Forced                                   : No

Menu
00:00:00.000                             : en:Chapter 01
00:06:02.862                             : en:Chapter 02
00:10:13.529                             : en:Chapter 03
00:12:58.778                             : en:Chapter 04
00:16:24.650                             : en:Chapter 05
00:19:18.866                             : en:Chapter 06
00:25:01.708                             : en:Chapter 07
00:27:48.458                             : en:Chapter 08
00:32:07.967                             : en:Chapter 09
00:36:07.874                             : en:Chapter 10
00:39:39.126                             : en:Chapter 11
00:45:16.714                             : en:Chapter 12
00:47:36.144                             : en:Chapter 13
00:52:26.977                             : en:Chapter 14
00:54:34.187                             : en:Chapter 15
00:59:34.028                             : en:Chapter 16
01:01:47.704                             : en:Chapter 17
01:06:04.543                             : en:Chapter 18
01:09:55.691                             : en:Chapter 19
01:12:47.988                             : en:Chapter 20
01:15:27.689                             : en:Chapter 21
01:18:31.873                             : en:Chapter 22
01:21:08.488                             : en:Chapter 23
01:23:46.688                             : en:Chapter 24
01:26:25.972                             : en:Chapter 25
01:28:18.876                             : en:Chapter 26
01:31:22.518                             : en:Chapter 27
01:34:10.144                             : en:Chapter 28
01:38:14.013                             : en:Chapter 29
01:41:50.312                             : en:Chapter 30
01:45:18.895                             : en:Chapter 31
01:53:09.908                             : en:Chapter 32
01:54:46.504                             : en:Chapter 33
02:00:22.215                             : en:Chapter 34
02:04:07.398                             : en:Chapter 35
02:07:25.721                             : en:Chapter 36


SCREENSHOTS

6Cs1bhh

Jwrt5hd

lCKHoQZ

OEk75C3

r0DCcZw

SeAgVpQ

wZy5Jba

DOWNLOAD [GDrive]

12 Years A Slave (2013) 1080p 10bit BluRay x265 HEVC Dual Audio [Hindi DD2.0 English DD5.1] [3.09 GB]

0 0 vote
Article Rating
Subscribe
Notify of
guest
0 Comments
Inline Feedbacks
View all comments